<?xml version="1.0" standalone="no"?>
<!DOCTYPE svg PUBLIC "-//W3C//DTD SVG 1.1//EN" "http://www.w3.org/Graphics/SVG/1.1/DTD/svg11.dtd" >
<svg>
<metadata>
Created by FontForge 20090622 at Thu Aug  2 13:36:36 2018
 By deploy user
(URW)++,Copyright 2010 by (URW)++ Design &#38; Development
</metadata>
<defs>
<font id="Wuerth-ExtraBoldCond" horiz-adv-x="1024" vert-adv-y="2048" >
  <font-face 
    font-family="Wuerth Extra Bold Cond"
    font-weight="800"
    font-stretch="normal"
    units-per-em="2048"
    panose-1="2 11 8 6 2 2 4 2 2 4"
    ascent="1621"
    descent="-427"
    x-height="956"
    cap-height="1365"
    bbox="-328 -512 2386 2125"
    underline-thickness="226"
    underline-position="-99"
    unicode-range="U+0020-U+FB04"
  />
<missing-glyph horiz-adv-x="380" vert-adv-y="2457" 
d="M38 0v1365h304v-1365h-304zM304 38v1289h-228v-1289h228z" />
    <glyph glyph-name=".notdef" horiz-adv-x="380" vert-adv-y="2457" 
d="M38 0v1365h304v-1365h-304zM304 38v1289h-228v-1289h228z" />
    <glyph glyph-name="glyph1" horiz-adv-x="0" vert-adv-y="0" 
 />
    <glyph glyph-name="glyph2" horiz-adv-x="380" vert-adv-y="2457" 
 />
    <glyph glyph-name="space" unicode=" " horiz-adv-x="380" vert-adv-y="2457" 
 />
    <glyph glyph-name="exclam" unicode="!" horiz-adv-x="659" vert-adv-y="2457" 
d="M329 394q87 0 148 -61q60 -60 60 -148q0 -85 -62 -146q-61 -59 -146 -59q-86 0 -147 62q-59 61 -59 145q0 88 61 147q62 60 145 60zM514 489h-360v954h360v-954z" />
    <glyph glyph-name="quotedbl" unicode="&#x22;" horiz-adv-x="830" vert-adv-y="2457" 
d="M340 803h-227l-49 562h326zM716 803h-228l-48 562h326z" />
    <glyph glyph-name="numbersign" unicode="#" horiz-adv-x="1108" vert-adv-y="2457" 
d="M940 612v-201h-154l-50 -411h-210l50 411h-110l-50 -411h-209l51 411h-134v201h159l20 167h-131v201h156l47 385h209l-48 -385h110l48 385h210l-48 -385h128v-201h-153l-20 -167h129zM621 779h-110l-20 -167h110z" />
    <glyph glyph-name="dollar" unicode="$" horiz-adv-x="1090" vert-adv-y="2457" 
d="M639 15v-208h-168v174q-112 5 -173 21q-44 12 -110 40v426q38 -57 80 -91q79 -62 157 -62q47 0 77 23t30 65q0 45 -38 84q-16 16 -103 85q-99 80 -149 159q-54 88 -54 206q0 182 111 310q65 76 184 125v191h167v-180q71 -10 116 -24q39 -13 102 -44v-415
q-113 147 -222 147q-46 0 -71 -27q-22 -23 -22 -53q0 -37 41 -74q26 -23 118 -95q102 -78 144 -158q46 -89 46 -202q0 -164 -90 -287q-59 -81 -173 -136z" />
    <glyph glyph-name="percent" unicode="%" horiz-adv-x="1412" vert-adv-y="2457" 
d="M355 1386q132 0 214 -93q79 -90 79 -239q0 -132 -68 -227q-77 -109 -221 -109q-82 0 -157 41q-147 80 -147 300q0 152 80 236q87 91 220 91zM352 1185q-57 0 -57 -134t58 -134q55 0 55 130q0 138 -56 138zM1065 647q132 0 214 -93q79 -90 79 -239q0 -132 -68 -228
q-77 -108 -221 -108q-83 0 -157 41q-147 80 -147 299q0 153 80 237q87 91 220 91zM1062 446q-57 0 -57 -134t58 -134q55 0 55 130q0 138 -56 138zM292 -48l-142 103l966 1366l147 -103z" />
    <glyph glyph-name="ampersand" unicode="&#x26;" horiz-adv-x="1290" vert-adv-y="2457" 
d="M1270 0h-400l-53 75q-147 -100 -303 -100q-174 0 -300 119q-132 125 -132 303q0 229 235 362q-31 39 -53 83q-52 102 -52 185q0 150 117 261q106 102 262 102q169 0 288 -104q127 -111 127 -264q0 -206 -232 -356l134 -176q46 48 127 157l188 -251q-78 -83 -141 -142z
M496 507q-64 -39 -64 -102q0 -46 29 -78q31 -35 77 -35q47 0 92 36zM609 901q40 38 55 58q31 41 31 78q0 32 -22 53q-22 20 -52 20q-35 0 -58 -26q-18 -21 -18 -46q0 -35 33 -90z" />
    <glyph glyph-name="quotesingle" unicode="'" horiz-adv-x="454" vert-adv-y="2457" 
d="M340 803h-227l-49 562h326z" />
    <glyph glyph-name="parenleft" unicode="(" horiz-adv-x="685" vert-adv-y="2457" 
d="M617 1357q-75 -149 -119 -296q-85 -280 -85 -528q0 -247 85 -527q44 -147 119 -296l-265 -143q-256 460 -256 966t256 967z" />
    <glyph glyph-name="parenright" unicode=")" horiz-adv-x="685" vert-adv-y="2457" 
d="M68 -290q75 149 120 296q84 279 84 528q0 248 -84 527q-45 147 -120 296l265 143q256 -460 256 -966t-256 -967z" />
    <glyph glyph-name="asterisk" unicode="*" horiz-adv-x="1092" vert-adv-y="2457" 
d="M430 1494h232l-14 -225l210 83l72 -221l-219 -57l144 -174l-188 -136l-121 190l-121 -190l-188 136l143 174l-218 57l72 220l210 -82z" />
    <glyph glyph-name="plus" unicode="+" horiz-adv-x="1092" vert-adv-y="2457" 
d="M96 590v213h341v364h218v-364h342v-213h-342v-365h-218v365h-341z" />
    <glyph glyph-name="comma" unicode="," horiz-adv-x="601" vert-adv-y="2457" 
d="M537 326l-238 -656h-291l167 656h362z" />
    <glyph glyph-name="hyphen" unicode="-" horiz-adv-x="444" vert-adv-y="2457" 
d="M444 355h-444v273h444v-273z" />
    <glyph glyph-name="period" unicode="." horiz-adv-x="601" vert-adv-y="2457" 
d="M298 394q85 0 146 -59q63 -62 63 -152q0 -83 -60 -143q-61 -60 -146 -60q-87 0 -148 62q-60 62 -60 147t59 144q62 61 146 61z" />
    <glyph glyph-name="slash" unicode="/" horiz-adv-x="1210" vert-adv-y="2457" 
d="M199 -433l-192 109l976 1824l193 -103z" />
    <glyph glyph-name="zero" unicode="0" horiz-adv-x="1090" vert-adv-y="2457" 
d="M549 1390q158 0 275 -101q203 -175 203 -615q0 -332 -142 -531q-120 -168 -327 -168q-172 0 -297 114q-112 101 -162 294q-36 137 -36 312q0 292 111 475q58 97 144 153q104 67 231 67zM544 1072q-62 0 -91 -89q-27 -85 -27 -266q0 -125 16 -244q16 -122 49 -155
q23 -23 52 -23q66 0 94 99q27 98 27 284q0 237 -40 330q-27 64 -80 64z" />
    <glyph glyph-name="one" unicode="1" horiz-adv-x="1090" vert-adv-y="2457" 
d="M789 0l-369 2v1042h-147v321h516v-1365z" />
    <glyph glyph-name="two" unicode="2" horiz-adv-x="1090" vert-adv-y="2457" 
d="M997 0h-939l373 498q120 160 169 258q54 109 54 210q0 70 -38 103q-21 18 -47 18q-89 0 -89 -167q0 -16 2 -50h-358q-2 34 -2 49q0 201 125 336q126 135 331 135q196 0 317 -128q120 -126 120 -319q0 -201 -143 -402q-76 -106 -215 -239q136 10 340 12v-314z" />
    <glyph glyph-name="three" unicode="3" horiz-adv-x="1092" vert-adv-y="2457" 
d="M81 401h360q1 -45 8 -67q18 -56 82 -56q38 0 63 23q38 36 38 103q0 68 -40 107q-38 37 -110 37q-20 0 -63 -4v291q32 -2 44 -2q64 0 100 20q52 31 52 119q0 64 -32 94q-20 19 -47 19q-50 0 -64 -48q-5 -18 -9 -61h-356q11 155 96 260q123 154 346 154q183 0 303 -114
q123 -118 123 -283q0 -112 -59 -196q-35 -48 -107 -92q183 -104 183 -317q0 -189 -143 -308q-126 -105 -320 -105q-248 0 -374 169q-75 100 -75 237q0 4 1 20z" />
    <glyph glyph-name="four" unicode="4" horiz-adv-x="1090" vert-adv-y="2457" 
d="M919 0h-369v277h-495v289l412 799h452v-794h116v-294h-116v-277zM563 571l5 255q0 48 9 156q-84 -177 -115 -237q-42 -82 -103 -174h204z" />
    <glyph glyph-name="five" unicode="5" horiz-adv-x="1090" vert-adv-y="2457" 
d="M97 83l43 323q162 -95 292 -95q88 0 140 44q50 43 50 109q0 75 -63 117q-54 36 -156 36q-114 0 -240 -48l106 796h680v-321h-389l-30 -154q39 3 62 3q167 0 284 -121q115 -120 115 -301q0 -136 -68 -253t-194 -181q-121 -62 -257 -62q-191 0 -375 108z" />
    <glyph glyph-name="six" unicode="6" horiz-adv-x="1090" vert-adv-y="2457" 
d="M828 1365l-218 -388q-26 -45 -68 -108q72 39 130 39q132 0 229 -115q108 -130 108 -322q0 -207 -118 -344q-132 -152 -357 -152q-200 0 -320 132q-127 139 -127 362q0 139 70 324q63 168 150 333l125 239h396zM548 642q-101 0 -101 -182q0 -190 102 -190q105 0 105 191
q0 88 -26 132q-29 49 -80 49z" />
    <glyph glyph-name="seven" unicode="7" horiz-adv-x="1090" vert-adv-y="2457" 
d="M478 0h-397l328 727q72 159 177 317h-463v321h969z" />
    <glyph glyph-name="eight" unicode="8" horiz-adv-x="1090" vert-adv-y="2457" 
d="M800 711q90 -40 136 -94q75 -89 75 -229q0 -179 -124 -288q-142 -125 -342 -125q-195 0 -333 124q-132 118 -132 288q0 156 106 251q43 39 126 73q-78 27 -119 66q-86 81 -86 220q0 167 123 281q122 112 310 112q180 0 306 -100q141 -112 141 -283q0 -111 -57 -193
q-39 -58 -130 -103zM545 566q-45 0 -68 -45q-22 -41 -22 -96q0 -60 25 -99q24 -36 66 -36q39 0 62 35q27 41 27 103q0 70 -29 107q-24 31 -61 31zM546 1097q-37 0 -59 -37q-17 -28 -17 -77q0 -58 21 -93q21 -32 56 -32q40 0 61 40q16 32 16 79q0 55 -20 85q-23 35 -58 35z
" />
    <glyph glyph-name="nine" unicode="9" horiz-adv-x="1090" vert-adv-y="2457" 
d="M261 0l219 388q25 45 68 108q-73 -39 -130 -39q-132 0 -228 115q-108 130 -108 322q0 207 118 344q132 152 357 152q200 0 320 -132q127 -139 127 -362q0 -139 -70 -324q-62 -164 -151 -333l-126 -239h-396zM542 1097q-105 0 -105 -193q0 -87 26 -132q29 -49 80 -49
q101 0 101 183q0 191 -102 191z" />
    <glyph glyph-name="colon" unicode=":" horiz-adv-x="601" vert-adv-y="2457" 
d="M298 978q85 0 146 -59q63 -62 63 -152q0 -83 -60 -143q-61 -60 -146 -60q-87 0 -148 62q-60 62 -60 147q0 86 59 144q62 61 146 61zM298 394q85 0 146 -59q63 -62 63 -152q0 -83 -60 -143q-61 -60 -146 -60q-87 0 -148 62q-60 62 -60 147t59 144q62 61 146 61z" />
    <glyph glyph-name="semicolon" unicode=";" horiz-adv-x="601" vert-adv-y="2457" 
d="M537 326l-238 -656h-291l167 656h362zM366 977q85 0 146 -59q63 -62 63 -152q0 -83 -60 -143q-61 -60 -146 -60q-87 0 -148 62q-60 61 -60 147t59 144q62 61 146 61z" />
    <glyph glyph-name="less" unicode="&#x3c;" vert-adv-y="2457" 
d="M955 1346v-386l-478 -268l476 -270l2 -382l-887 492v322z" />
    <glyph glyph-name="equal" unicode="=" horiz-adv-x="1092" vert-adv-y="2457" 
d="M82 753v193h928v-193h-928zM82 446v193h928v-193h-928z" />
    <glyph glyph-name="greater" unicode="&#x3e;" vert-adv-y="2457" 
d="M68 40v385l478 269l-476 269l-2 383l887 -493v-322z" />
    <glyph glyph-name="question" unicode="?" horiz-adv-x="1041" vert-adv-y="2457" 
d="M525 394q86 0 148 -61q60 -60 60 -149q0 -84 -62 -145q-61 -59 -145 -59q-87 0 -148 62q-59 61 -59 145q0 88 61 147q62 60 145 60zM697 494h-351v334q38 -2 55 -2q91 0 133 30q59 43 59 150q0 90 -34 132q-16 19 -44 19q-76 0 -78 -156h-355q0 162 59 265q48 86 144 138
q106 57 230 57q194 0 320 -127q124 -125 124 -322q0 -126 -59 -229q-64 -111 -203 -149v-140z" />
    <glyph glyph-name="at" unicode="@" horiz-adv-x="1420" vert-adv-y="2457" 
d="M1030 1039l-53 -448q-5 -42 -5 -82q0 -54 31 -54q17 0 32 10q46 31 72 86q48 101 48 218q0 253 -183 377q-103 70 -232 70q-194 0 -326 -154q-133 -154 -133 -379q0 -213 117 -363q133 -169 349 -169q148 0 306 63q36 15 85 44l78 -151q-12 -7 -32 -17q-114 -62 -207 -87
t-211 -25q-211 0 -364 97q-143 90 -225 245q-89 169 -89 363q0 314 206 519q185 185 446 185q181 0 328 -97q122 -81 192 -212q72 -136 72 -297t-71 -297q-59 -112 -149 -161q-60 -32 -119 -32q-79 0 -135 86q-27 -26 -50 -44q-58 -46 -130 -46q-79 0 -146 61
q-64 59 -94 166q-17 64 -17 138q0 181 98 300q85 104 210 104q71 0 136 -57l10 40h155zM738 875q-47 0 -80 -57q-42 -70 -42 -176q0 -74 23 -129q19 -45 53 -45q39 0 77 41q32 35 51 98q15 50 15 100q0 78 -31 126q-28 42 -66 42z" />
    <glyph glyph-name="A" unicode="A" horiz-adv-x="1090" vert-adv-y="2457" 
d="M1079 0h-381l-27 173h-249l-30 -173h-381l328 1365h451zM628 465l-24 159q-19 123 -46 415q-9 -72 -14 -108q-9 -78 -23 -171l-11 -80l-38 -215h156z" />
    <glyph glyph-name="B" unicode="B" horiz-adv-x="1085" vert-adv-y="2457" 
d="M96 0v1365h429q240 0 356 -107q118 -109 118 -281q0 -150 -104 -229q-52 -40 -150 -48q130 -19 191 -74q89 -82 89 -235q0 -103 -47 -194q-101 -197 -365 -197h-517zM465 296q21 -1 32 -1q56 0 95 24q56 35 56 109q0 60 -41 95q-40 35 -113 35q-11 0 -29 -1v-261z
M465 834h24q64 0 101 28q43 33 43 89q0 57 -36 90q-31 29 -94 29q-12 0 -38 -1v-235z" />
    <glyph glyph-name="C" unicode="C" horiz-adv-x="912" vert-adv-y="2457" 
d="M863 420l-21 -395q-117 -50 -221 -50q-257 0 -417 207q-143 184 -143 495q0 339 179 532q167 181 425 181q95 0 182 -34v-390q-31 31 -54 47q-51 36 -115 36q-116 0 -177 -97q-63 -100 -63 -269q0 -153 54 -247q62 -105 179 -105q74 0 140 46q20 14 52 43z" />
    <glyph glyph-name="D" unicode="D" horiz-adv-x="1100" vert-adv-y="2457" 
d="M96 0v1365h319q298 0 457 -180q168 -190 168 -503q0 -340 -169 -525q-92 -100 -228 -136q-81 -21 -202 -21h-345zM465 330q198 9 198 341q0 223 -94 318q-34 34 -104 35v-694z" />
    <glyph glyph-name="E" unicode="E" horiz-adv-x="842" vert-adv-y="2457" 
d="M96 0v1365h685v-321h-316v-199h284v-309h-284v-208h316v-328h-685z" />
    <glyph glyph-name="F" unicode="F" horiz-adv-x="795" vert-adv-y="2457" 
d="M465 0h-369v1365h651v-321h-282v-199h263v-309h-263v-536z" />
    <glyph glyph-name="G" unicode="G" horiz-adv-x="1147" vert-adv-y="2457" 
d="M570 789h515v-56q0 -225 -32 -360q-53 -222 -199 -320q-115 -78 -266 -78q-163 0 -290 90q-237 169 -237 611q0 303 123 497q137 217 403 217q323 0 468 -338l-357 -131q-8 64 -38 103q-28 37 -70 37q-69 0 -108 -83q-44 -95 -44 -335q0 -201 41 -275q35 -64 99 -64
q62 0 98 62q29 50 30 136h-136v287z" />
    <glyph glyph-name="H" unicode="H" horiz-adv-x="1105" vert-adv-y="2457" 
d="M1009 0h-369v549h-175v-549h-369v1365h369v-483h175v483h369v-1365z" />
    <glyph glyph-name="I" unicode="I" horiz-adv-x="560" vert-adv-y="2457" 
d="M465 0h-369v1365h369v-1365z" />
    <glyph glyph-name="J" unicode="J" horiz-adv-x="725" vert-adv-y="2457" 
d="M0 21v381q63 -82 148 -82q113 0 113 170v875h369v-948q0 -137 -26 -208q-84 -234 -363 -234q-112 0 -241 46z" />
    <glyph glyph-name="K" unicode="K" horiz-adv-x="1108" vert-adv-y="2457" 
d="M1098 0h-398l-245 629l10 -629h-369v1365h369l-10 -585l217 585h390l-295 -659z" />
    <glyph glyph-name="L" unicode="L" horiz-adv-x="755" vert-adv-y="2457" 
d="M742 0h-646v1365h369v-1037h277v-328z" />
    <glyph glyph-name="M" unicode="M" horiz-adv-x="1569" vert-adv-y="2457" 
d="M1500 0h-385l-27 623q-2 51 -4 124l-4 124q-15 -144 -38 -263l-116 -608h-300l-106 656q-10 63 -25 215q-1 -78 -4 -199l-3 -104l-31 -568h-396l159 1365h459l77 -460q19 -113 31 -267q13 131 32 233l93 494h456z" />
    <glyph glyph-name="N" unicode="N" horiz-adv-x="1152" vert-adv-y="2457" 
d="M96 0v1365h352l184 -479q31 -81 115 -344q-42 346 -42 516v307h352v-1365h-352l-186 502q-58 158 -94 284q23 -280 23 -438v-348h-352z" />
    <glyph glyph-name="O" unicode="O" horiz-adv-x="1161" vert-adv-y="2457" 
d="M584 1390q165 0 291 -104q224 -185 224 -608q0 -331 -156 -527q-66 -83 -159 -130q-93 -46 -196 -46q-151 0 -282 95q-245 179 -245 623q0 337 161 523q150 174 362 174zM584 1046q-57 0 -93 -74q-48 -96 -48 -289q0 -212 51 -303q33 -60 84 -60q50 0 87 63q51 86 51 292
q0 371 -132 371z" />
    <glyph glyph-name="P" unicode="P" horiz-adv-x="1035" vert-adv-y="2457" 
d="M465 0h-369v1365h357q267 0 397 -109q152 -128 152 -356q0 -149 -64 -259q-85 -147 -266 -182q-61 -12 -149 -12q-17 0 -58 1v-448zM465 754q12 -1 17 -1q53 0 93 29q54 38 54 124q0 74 -42 120q-37 41 -96 41q-10 0 -26 -1v-312z" />
    <glyph glyph-name="Q" unicode="Q" horiz-adv-x="1176" vert-adv-y="2457" 
d="M1114 -28l-296 -162l-127 183q-57 -18 -109 -18q-165 0 -294 106q-227 188 -227 599q0 339 154 532q67 84 162 131t204 47q236 0 382 -204q137 -189 137 -487q0 -352 -154 -538zM578 1046q-54 0 -88 -72q-47 -101 -47 -294q0 -215 52 -302q36 -58 85 -58q59 0 96 79
q42 88 42 276q0 230 -57 318q-35 53 -83 53z" />
    <glyph glyph-name="R" unicode="R" horiz-adv-x="1093" vert-adv-y="2457" 
d="M1067 0h-399l-125 335l-27 75l-56 158q5 -152 5 -182v-386h-369v1365h378q250 0 373 -98q75 -60 116 -154t41 -203q0 -248 -211 -342zM465 734q15 -1 25 -1q66 0 105 48q43 52 43 124q0 114 -93 144q-28 9 -80 9v-324z" />
    <glyph glyph-name="S" unicode="S" horiz-adv-x="827" vert-adv-y="2457" 
d="M66 34v428q109 -149 235 -149q48 0 80 27q28 24 28 62q0 47 -45 89q-10 9 -80 64q-86 67 -133 126q-90 114 -90 261q0 129 68 246q118 202 347 202q131 0 265 -70v-418q-34 54 -77 90q-72 61 -139 61q-52 0 -81 -37q-17 -21 -17 -45q0 -42 51 -89q11 -11 83 -63
q73 -52 126 -114q92 -105 92 -266q0 -204 -124 -334t-310 -130q-137 0 -279 59z" />
    <glyph glyph-name="T" unicode="T" horiz-adv-x="784" vert-adv-y="2457" 
d="M572 0h-369v1037h-203v328h784v-328h-212v-1037z" />
    <glyph glyph-name="U" unicode="U" horiz-adv-x="1117" vert-adv-y="2457" 
d="M653 1365h369v-966q0 -146 -58 -231q-132 -193 -387 -193q-214 0 -348 118q-79 70 -107 165q-26 85 -26 193v914h369v-881q0 -79 16 -115q21 -49 79 -49q57 0 79 48q14 31 14 115v882z" />
    <glyph glyph-name="V" unicode="V" horiz-adv-x="1061" vert-adv-y="2457" 
d="M689 0h-376l-313 1365h387l67 -390q39 -224 62 -501q18 238 57 440l87 451h401z" />
    <glyph glyph-name="W" unicode="W" horiz-adv-x="1543" vert-adv-y="2457" 
d="M1266 0h-356l-84 478q-10 58 -28 184q-17 118 -26 191q-8 -69 -19 -187q-9 -94 -20 -171l-70 -495h-359l-304 1365h364l60 -376l17 -118q21 -140 44 -360q30 300 59 464l69 390h317l62 -328q44 -230 77 -542q19 272 46 446l68 424h360z" />
    <glyph glyph-name="X" unicode="X" horiz-adv-x="1059" vert-adv-y="2457" 
d="M1059 0h-410l-68 195l-19 59q-23 71 -34 112q-55 -178 -59 -187l-67 -179h-402l332 708l-314 657h411l61 -185l12 -39l30 -98q20 92 33 135l56 187h414l-312 -657z" />
    <glyph glyph-name="Y" unicode="Y" horiz-adv-x="1025" vert-adv-y="2457" 
d="M708 0h-369v578l-339 787h384l67 -202q39 -118 63 -220q40 151 62 218l67 204h382l-317 -787v-578z" />
    <glyph glyph-name="Z" unicode="Z" horiz-adv-x="1054" vert-adv-y="2457" 
d="M974 0h-940v29l293 667q86 196 184 348h-396v321h905v-38l-336 -744l-97 -202l-34 -70q103 8 135 9l286 8v-328z" />
    <glyph glyph-name="bracketleft" unicode="[" horiz-adv-x="714" vert-adv-y="2457" 
d="M646 -183v-244h-523v1921h523v-244h-210v-1433h210z" />
    <glyph glyph-name="backslash" unicode="\" horiz-adv-x="1210" vert-adv-y="2457" 
d="M1010 -433l-976 1830l193 103l976 -1824z" />
    <glyph glyph-name="bracketright" unicode="]" horiz-adv-x="714" vert-adv-y="2457" 
d="M68 1250v244h523v-1921h-523v244h210v1433h-210z" />
    <glyph glyph-name="asciicircum" unicode="^" vert-adv-y="2457" 
d="M351 691h-338l285 684h429l285 -684h-338l-161 423z" />
    <glyph glyph-name="underscore" unicode="_" vert-adv-y="2457" 
d="M0 -99h1024v-226h-1024v226z" />
    <glyph glyph-name="grave" unicode="`" vert-adv-y="2457" 
d="M622 1086h-203l-180 303h286z" />
    <glyph glyph-name="a" unicode="a" horiz-adv-x="1017" vert-adv-y="2457" 
d="M936 0h-355l3 45q3 63 9 116q-36 -71 -68 -104q-73 -77 -179 -77q-143 0 -219 148q-72 139 -72 356q0 229 84 364q79 128 216 128q106 0 176 -84q24 -29 54 -87q-4 42 -8 109l-2 42h361v-956zM501 684q-49 0 -69 -59t-20 -179q0 -173 81 -173q84 0 84 218q0 87 -11 131
q-14 62 -65 62z" />
    <glyph glyph-name="b" unicode="b" horiz-adv-x="1017" vert-adv-y="2457" 
d="M444 0h-362v1494h355v-524l-2 -46q-1 -66 -3 -106q38 72 70 100q63 58 157 58q96 0 168 -64q136 -119 136 -443q0 -243 -91 -374q-36 -52 -95 -83.5t-122 -31.5q-90 0 -152 61q-28 27 -66 88l3 -50q4 -44 4 -79zM505 682q-79 0 -79 -194q0 -203 82 -203q45 0 67 53
q21 52 21 139q0 205 -91 205z" />
    <glyph glyph-name="c" unicode="c" horiz-adv-x="620" vert-adv-y="2457" 
d="M579 312v-327q-63 -6 -96 -6q-183 0 -293 124q-62 70 -98 171q-37 104 -37 209q0 152 74 278q72 124 202 180q83 36 177 36q22 0 71 -4v-311q-157 -11 -157 -172q0 -66 35 -119q39 -60 98 -60q12 0 24 1z" />
    <glyph glyph-name="d" unicode="d" horiz-adv-x="1017" vert-adv-y="2457" 
d="M574 0q0 19 7 129q-38 -60 -66 -88q-61 -61 -152 -61q-85 0 -158 55q-150 111 -150 434q0 237 78 373q39 69 107 105q55 29 119 29q94 0 157 -58q31 -28 71 -100q-3 40 -4 106l-2 46v524h355v-1494h-362zM513 681q-91 0 -91 -199q0 -197 88 -197q82 0 82 203
q0 193 -79 193z" />
    <glyph glyph-name="e" unicode="e" horiz-adv-x="985" vert-adv-y="2457" 
d="M571 324l347 -7q-25 -112 -80 -183q-120 -155 -346 -155q-199 0 -317 123q-120 126 -120 359q0 208 106 346q129 168 341 168q143 0 252 -82q177 -134 177 -427q0 -23 -1 -63h-521q8 -147 83 -147q60 0 79 68zM579 594q-2 42 -14 69q-22 52 -69 52q-77 0 -82 -121h165z
" />
    <glyph glyph-name="f" unicode="f" horiz-adv-x="616" vert-adv-y="2457" 
d="M478 0h-355v671h-102v285h102v176q0 173 68 259q92 117 247 117q71 0 167 -25v-329q-45 34 -73 34q-34 0 -46 -31q-8 -20 -8 -68v-133h127v-285h-127v-671z" />
    <glyph glyph-name="g" unicode="g" horiz-adv-x="1009" vert-adv-y="2457" 
d="M927 956v-984q0 -135 -38 -212q-56 -113 -192 -168q-88 -36 -201 -36q-249 0 -354 140q-56 76 -75 206h363q5 -78 74 -78q55 0 72 45q11 30 11 91v151q-94 -125 -223 -125q-88 0 -164 66q-145 126 -145 426q0 220 86 359q38 63 99 103q55 36 121 36q85 0 148 -62
q28 -28 67 -83l-7 125h358zM507 688q-85 0 -85 -202q0 -131 36 -181q20 -27 46 -27q79 0 79 202q0 208 -76 208z" />
    <glyph glyph-name="h" unicode="h" horiz-adv-x="1005" vert-adv-y="2457" 
d="M923 0h-355v506q0 67 -13 91q-13 26 -44 26q-74 0 -74 -141v-482h-355v1494h355v-534l-3 -73q-2 -67 -5 -113q86 203 251 203q81 0 147 -55q96 -79 96 -270v-652z" />
    <glyph glyph-name="i" unicode="i" horiz-adv-x="519" vert-adv-y="2457" 
d="M437 0h-355v956h355v-956zM259 1461q85 0 146 -59q62 -60 62 -150q0 -82 -59 -143q-61 -62 -148 -62q-85 0 -146 60q-61 61 -61 148q0 86 60 145q62 61 146 61z" />
    <glyph glyph-name="j" unicode="j" horiz-adv-x="519" vert-adv-y="2457" 
d="M437 -419h-354l-2 1375h356v-1375zM258 1461q85 0 146 -59q62 -60 62 -150q0 -82 -59 -143q-61 -62 -148 -62q-85 0 -146 60q-61 61 -61 148q0 86 60 145q62 61 146 61z" />
    <glyph glyph-name="k" unicode="k" horiz-adv-x="1013" vert-adv-y="2457" 
d="M606 0l-137 371q-10 26 -32 109v-480h-355v1494h355v-969q22 74 53 149l116 282h383l-235 -439l259 -517h-407z" />
    <glyph glyph-name="l" unicode="l" horiz-adv-x="519" vert-adv-y="2457" 
d="M437 0h-355v1494h355v-1494z" />
    <glyph glyph-name="m" unicode="m" horiz-adv-x="1502" vert-adv-y="2457" 
d="M1420 0h-355v501q0 88 -14 109q-15 22 -40 22q-80 0 -80 -148v-484h-355v480q0 93 -8 112q-14 34 -52 34q-37 0 -60 -33q-19 -28 -19 -117v-476h-355v956h355q-1 -35 -2 -80q-1 -35 -3 -79q34 66 67 102q71 78 179 78q110 0 185 -82q35 -37 68 -116q31 87 72 129
q64 68 165 68q136 0 205 -107q30 -45 40 -99q7 -40 7 -114v-656z" />
    <glyph glyph-name="n" unicode="n" horiz-adv-x="1005" vert-adv-y="2457" 
d="M923 0h-355v506q0 67 -13 91q-13 26 -44 26q-74 0 -74 -141v-482h-355v956h355q-2 -65 -8 -182q86 203 251 203q82 0 147 -55q96 -79 96 -270v-652z" />
    <glyph glyph-name="o" unicode="o" horiz-adv-x="998" vert-adv-y="2457" 
d="M496 976q232 0 351 -165q97 -133 97 -348q0 -210 -114 -344q-120 -140 -336 -140q-203 0 -318 132q-121 139 -121 363q0 217 116 358q120 144 325 144zM499 708q-37 0 -63 -45q-37 -64 -37 -186q0 -132 44 -196q24 -34 57 -34q37 0 63 45q37 64 37 182q0 137 -44 200
q-23 34 -57 34z" />
    <glyph glyph-name="p" unicode="p" horiz-adv-x="1013" vert-adv-y="2457" 
d="M437 -427h-355v1383h355l-8 -135q35 66 67 96q62 59 152 59q138 0 221 -132q90 -144 90 -367q0 -245 -98 -388q-34 -51 -93 -81q-53 -28 -113 -28q-84 0 -149 55q-36 30 -77 95q8 -103 8 -159v-398zM508 684q-82 0 -82 -201q0 -118 31 -170q20 -34 49 -34q33 0 56 41
q30 53 30 167q0 113 -32 163q-22 34 -52 34z" />
    <glyph glyph-name="q" unicode="q" horiz-adv-x="1013" vert-adv-y="2457" 
d="M577 -427v398q0 56 8 159q-42 -65 -77 -95q-65 -55 -149 -55q-85 0 -155 55q-78 61 -118 199q-31 107 -31 243q0 223 90 367q83 132 221 132q90 0 153 -59q31 -29 66 -96l-8 135h355v-1383h-355zM505 684q-34 0 -57 -44q-26 -50 -26 -149q0 -126 35 -179q22 -33 51 -33
q33 0 55 44q25 53 25 160q0 201 -83 201z" />
    <glyph glyph-name="r" unicode="r" horiz-adv-x="705" vert-adv-y="2457" 
d="M437 0h-355v956h355l-19 -186q80 204 266 209v-398q-58 32 -99 32q-69 0 -111 -55q-29 -38 -34 -84q-3 -27 -3 -64v-410z" />
    <glyph glyph-name="s" unicode="s" horiz-adv-x="808" vert-adv-y="2457" 
d="M48 79l129 265q95 -99 179 -99q39 0 58 23q10 12 10 26q0 44 -92 76q-98 34 -156 80q-95 76 -95 200q0 142 110 231q117 95 282 95q135 0 284 -77l-121 -260q-88 84 -145 84q-25 0 -41 -14q-15 -13 -15 -31q0 -49 106 -91q113 -44 154 -83q77 -71 77 -188
q0 -136 -99 -234q-103 -102 -283 -102q-126 0 -247 52q-35 16 -95 47z" />
    <glyph glyph-name="t" unicode="t" horiz-adv-x="617" vert-adv-y="2457" 
d="M485 0h-355v671h-101v285h101v281h355v-281h117v-285h-117v-671z" />
    <glyph glyph-name="u" unicode="u" horiz-adv-x="1023" vert-adv-y="2457" 
d="M82 956h355v-539q0 -82 15 -110q16 -31 60 -31q43 0 59 31q15 28 15 110v539h355v-587q0 -149 -64 -231q-67 -86 -188 -128q-83 -30 -177 -30q-168 0 -292 88q-78 55 -109 129q-29 70 -29 172v587z" />
    <glyph glyph-name="v" unicode="v" horiz-adv-x="912" vert-adv-y="2457" 
d="M634 0h-370l-264 956h359l55 -280q16 -84 40 -325q26 199 47 306l62 299h349z" />
    <glyph glyph-name="w" unicode="w" horiz-adv-x="1397" vert-adv-y="2457" 
d="M1118 0h-350l-73 573l-110 -573h-347l-238 956h349l54 -307q20 -115 35 -269q15 161 46 298l64 278h302l51 -308q20 -118 33 -268q27 199 57 339l51 237h355z" />
    <glyph glyph-name="x" unicode="x" horiz-adv-x="987" vert-adv-y="2457" 
d="M987 0h-411l-34 88q-26 68 -45 138q-38 -99 -57 -137l-42 -89h-398l291 492l-275 464h405l37 -107q6 -17 31 -99q14 41 38 103l40 103h393l-282 -456z" />
    <glyph glyph-name="y" unicode="y" horiz-adv-x="934" vert-adv-y="2457" 
d="M495 -401h-366l155 441l-284 916h356l69 -274q28 -113 43 -268q37 252 58 335l53 207h355z" />
    <glyph glyph-name="z" unicode="z" horiz-adv-x="891" vert-adv-y="2457" 
d="M800 0h-766l231 496q34 72 91 175h-270v285h770l-225 -487q-41 -88 -94 -180h263v-289z" />
    <glyph glyph-name="braceleft" unicode="{" horiz-adv-x="751" vert-adv-y="2457" 
d="M389 533q80 -54 104 -124q19 -55 19 -143v-305q0 -95 16 -116q20 -27 129 -27q18 0 59 1v-248q-63 -1 -151 -4h-21q-166 0 -247 70t-81 243v367q0 105 -30 139q-23 26 -48 34q-10 3 -34 8v231q44 9 58 18q35 21 45 70q9 43 9 72v369q0 185 97 255q79 57 234 57
q17 0 83 -3q25 0 86 -2v-247h-21q-34 1 -41 1q-106 0 -126 -27q-16 -24 -16 -116v-306q0 -138 -49 -202q-21 -28 -74 -65z" />
    <glyph glyph-name="bar" unicode="|" vert-adv-y="2457" 
d="M317 1365h391v-1706h-391v1706z" />
    <glyph glyph-name="braceright" unicode="}" horiz-adv-x="751" vert-adv-y="2457" 
d="M361 534q-80 54 -104 124q-19 55 -19 143v305q0 94 -16 116q-20 27 -129 27q-6 0 -58 -1v248q69 1 151 4h21q165 0 246 -70t81 -243v-367q0 -105 30 -139q23 -26 48 -34q10 -3 35 -8v-231q-44 -9 -58 -17q-55 -33 -55 -143v-369q0 -185 -97 -255q-79 -57 -234 -57
q-14 0 -82 3l-66 1l-20 1v247q52 -1 62 -1q106 0 125 27q16 24 16 116v306q0 139 49 202q21 28 74 65z" />
    <glyph glyph-name="asciitilde" unicode="~" horiz-adv-x="1365" vert-adv-y="2457" 
d="M321 1148l-130 107q110 264 297 264q71 0 232 -72q94 -42 116 -48q28 -8 51 -8q89 0 161 133l130 -107q-63 -150 -146 -209q-71 -51 -171 -51q-34 0 -79 15q-40 12 -150 63q-104 47 -155 47q-84 0 -156 -134z" />
    <glyph glyph-name="Adieresis" unicode="&#xc4;" horiz-adv-x="1090" vert-adv-y="2457" 
d="M1079 0h-381l-27 173h-249l-30 -173h-381l328 1365h451zM628 465l-24 159q-19 123 -46 415q-9 -72 -14 -108q-9 -78 -23 -171l-11 -80l-38 -215h156zM762 1772q62 0 106 -44q43 -43 43 -106q0 -59 -43 -103t-105 -44q-63 0 -106 45q-43 44 -43 105q0 63 44 105
q45 42 104 42zM356 1771q60 0 103 -41q45 -44 45 -107q0 -59 -43 -104q-43 -44 -105 -44t-105 44q-43 43 -43 104q0 62 42 104q44 44 106 44z" />
    <glyph glyph-name="Aring" unicode="&#xc5;" horiz-adv-x="1090" vert-adv-y="2457" 
d="M1079 0h-381l-27 173h-249l-30 -173h-381l328 1365h451zM628 465l-24 159q-19 123 -46 415q-9 -72 -14 -108q-9 -78 -23 -171l-11 -80l-38 -215h156zM559 1817q74 0 126 -52q52 -53 52 -128q0 -72 -53 -125q-51 -51 -124 -51q-76 0 -128 54q-50 52 -50 125q0 75 53 126
q52 51 124 51zM560 1715q-31 0 -53 -21q-23 -22 -23 -54q0 -31 21 -53q23 -24 56 -24q30 0 52 21q23 23 23 54q0 32 -22 54q-23 23 -54 23z" />
    <glyph glyph-name="Ccedilla" unicode="&#xc7;" horiz-adv-x="912" vert-adv-y="2457" 
d="M863 420l-21 -395q-117 -50 -221 -50q-257 0 -417 207q-143 184 -143 495q0 339 179 532q167 181 425 181q95 0 182 -34v-390q-31 31 -54 47q-51 36 -115 36q-116 0 -177 -97q-63 -100 -63 -269q0 -153 54 -247q62 -105 179 -105q74 0 140 46q20 14 52 43zM747 -218
l-287 -271l-148 93l246 300z" />
    <glyph glyph-name="Eacute" unicode="&#xc9;" horiz-adv-x="842" vert-adv-y="2457" 
d="M96 0v1365h685v-321h-316v-199h284v-309h-284v-208h316v-328h-685zM701 1783l-173 -309h-205l89 309h289z" />
    <glyph glyph-name="Ntilde" unicode="&#xd1;" horiz-adv-x="1152" vert-adv-y="2457" 
d="M96 0v1365h352l184 -479q31 -81 115 -344q-42 346 -42 516v307h352v-1365h-352l-186 502q-58 158 -94 284q23 -280 23 -438v-348h-352zM749 1752h183v-29q0 -100 -57 -172t-158 -72q-63 0 -154 41q-59 27 -86 27q-51 0 -54 -72h-187q0 75 11 114q20 70 76 116
q49 40 120 40q51 0 109 -20l81 -34q32 -14 59 -14q52 0 57 75z" />
    <glyph glyph-name="Odieresis" unicode="&#xd6;" horiz-adv-x="1161" vert-adv-y="2457" 
d="M584 1390q165 0 291 -104q224 -185 224 -608q0 -331 -156 -527q-66 -83 -159 -130q-93 -46 -196 -46q-151 0 -282 95q-245 179 -245 623q0 337 161 523q150 174 362 174zM584 1046q-57 0 -93 -74q-48 -96 -48 -289q0 -212 51 -303q33 -60 84 -60q50 0 87 63q51 86 51 292
q0 371 -132 371zM783 1772q62 0 106 -44q43 -43 43 -106q0 -59 -43 -103t-105 -44q-63 0 -106 45q-43 44 -43 105q0 63 44 105q45 42 104 42zM377 1771q60 0 103 -41q45 -44 45 -107q0 -59 -43 -104q-43 -44 -105 -44t-105 44q-43 43 -43 104q0 62 42 104q44 44 106 44z" />
    <glyph glyph-name="Udieresis" unicode="&#xdc;" horiz-adv-x="1117" vert-adv-y="2457" 
d="M653 1365h369v-966q0 -146 -58 -231q-132 -193 -387 -193q-214 0 -348 118q-79 70 -107 165q-26 85 -26 193v914h369v-881q0 -79 16 -115q21 -49 79 -49q57 0 79 48q14 31 14 115v882zM763 1772q62 0 106 -44q43 -43 43 -106q0 -59 -43 -103t-105 -44q-63 0 -106 45
q-43 44 -43 105q0 63 44 105q45 42 104 42zM357 1771q60 0 103 -41q45 -44 45 -107q0 -59 -43 -104q-43 -44 -105 -44t-105 44q-43 43 -43 104q0 62 42 104q44 44 106 44z" />
    <glyph glyph-name="aacute" unicode="&#xe1;" horiz-adv-x="1017" vert-adv-y="2457" 
d="M936 0h-355l3 45q3 63 9 116q-36 -71 -68 -104q-73 -77 -179 -77q-143 0 -219 148q-72 139 -72 356q0 229 84 364q79 128 216 128q106 0 176 -84q24 -29 54 -87q-4 42 -8 109l-2 42h361v-956zM501 684q-49 0 -69 -59t-20 -179q0 -173 81 -173q84 0 84 218q0 87 -11 131
q-14 62 -65 62zM414 1086l97 303h286l-180 -303h-203z" />
    <glyph glyph-name="agrave" unicode="&#xe0;" horiz-adv-x="1017" vert-adv-y="2457" 
d="M936 0h-355l3 45q3 63 9 116q-36 -71 -68 -104q-73 -77 -179 -77q-143 0 -219 148q-72 139 -72 356q0 229 84 364q79 128 216 128q106 0 176 -84q24 -29 54 -87q-4 42 -8 109l-2 42h361v-956zM501 684q-49 0 -69 -59t-20 -179q0 -173 81 -173q84 0 84 218q0 87 -11 131
q-14 62 -65 62zM661 1086h-203l-180 303h286z" />
    <glyph glyph-name="acircumflex" unicode="&#xe2;" horiz-adv-x="1017" vert-adv-y="2457" 
d="M936 0h-355l3 45q3 63 9 116q-36 -71 -68 -104q-73 -77 -179 -77q-143 0 -219 148q-72 139 -72 356q0 229 84 364q79 128 216 128q106 0 176 -84q24 -29 54 -87q-4 42 -8 109l-2 42h361v-956zM501 684q-49 0 -69 -59t-20 -179q0 -173 81 -173q84 0 84 218q0 87 -11 131
q-14 62 -65 62zM841 1085h-260l-72 138l-80 -138h-211l157 284h320z" />
    <glyph glyph-name="adieresis" unicode="&#xe4;" horiz-adv-x="1017" vert-adv-y="2457" 
d="M936 0h-355l3 45q3 63 9 116q-36 -71 -68 -104q-73 -77 -179 -77q-143 0 -219 148q-72 139 -72 356q0 229 84 364q79 128 216 128q106 0 176 -84q24 -29 54 -87q-4 42 -8 109l-2 42h361v-956zM501 684q-49 0 -69 -59t-20 -179q0 -173 81 -173q84 0 84 218q0 87 -11 131
q-14 62 -65 62zM332 1381q61 0 104 -42q45 -44 45 -108q0 -58 -42 -102q-43 -44 -105 -44t-106 44q-43 44 -43 105q0 62 43 104q43 43 104 43zM725 1381q61 0 104 -42q45 -44 45 -108q0 -59 -42 -102q-43 -44 -105 -44t-106 44q-43 44 -43 105q0 62 43 104q44 43 104 43z
" />
    <glyph glyph-name="atilde" unicode="&#xe3;" horiz-adv-x="1017" vert-adv-y="2457" 
d="M936 0h-355l3 45q3 63 9 116q-36 -71 -68 -104q-73 -77 -179 -77q-143 0 -219 148q-72 139 -72 356q0 229 84 364q79 128 216 128q106 0 176 -84q24 -29 54 -87q-4 42 -8 109l-2 42h361v-956zM501 684q-49 0 -69 -59t-20 -179q0 -173 81 -173q84 0 84 218q0 87 -11 131
q-14 62 -65 62zM696 1363h183v-29q0 -101 -57 -173t-158 -72q-63 0 -154 42q-59 27 -86 27q-51 0 -54 -73h-187q0 75 11 115q20 69 76 115q49 41 120 41q51 0 109 -21l81 -34q32 -14 59 -14q52 0 57 76z" />
    <glyph glyph-name="aring" unicode="&#xe5;" horiz-adv-x="1017" vert-adv-y="2457" 
d="M936 0h-355l3 45q3 63 9 116q-36 -71 -68 -104q-73 -77 -179 -77q-143 0 -219 148q-72 139 -72 356q0 229 84 364q79 128 216 128q106 0 176 -84q24 -29 54 -87q-4 42 -8 109l-2 42h361v-956zM501 684q-49 0 -69 -59t-20 -179q0 -173 81 -173q84 0 84 218q0 87 -11 131
q-14 62 -65 62zM551 1465q81 0 138 -57q59 -59 59 -143q0 -78 -57 -136t-139 -58q-81 0 -138 56q-59 58 -59 141q0 81 56 137q59 60 140 60zM550 1352q-34 0 -58 -24q-25 -25 -25 -60t24 -60t59 -25t59 25t24 59q0 36 -24 60q-24 25 -59 25z" />
    <glyph glyph-name="ccedilla" unicode="&#xe7;" horiz-adv-x="620" vert-adv-y="2457" 
d="M579 312v-327q-63 -6 -96 -6q-183 0 -293 124q-62 70 -98 171q-37 104 -37 209q0 152 74 278q72 124 202 180q83 36 177 36q22 0 71 -4v-311q-157 -11 -157 -172q0 -66 35 -119q39 -60 98 -60q12 0 24 1zM545 -203l-233 -240l-134 97l200 251z" />
    <glyph glyph-name="eacute" unicode="&#xe9;" horiz-adv-x="985" vert-adv-y="2457" 
d="M571 324l347 -7q-25 -112 -80 -183q-120 -155 -346 -155q-199 0 -317 123q-120 126 -120 359q0 208 106 346q129 168 341 168q143 0 252 -82q177 -134 177 -427q0 -23 -1 -63h-521q8 -147 83 -147q60 0 79 68zM579 594q-2 42 -14 69q-22 52 -69 52q-77 0 -82 -121h165z
M371 1086l97 303h286l-180 -303h-203z" />
    <glyph glyph-name="egrave" unicode="&#xe8;" horiz-adv-x="985" vert-adv-y="2457" 
d="M571 324l347 -7q-25 -112 -80 -183q-120 -155 -346 -155q-199 0 -317 123q-120 126 -120 359q0 208 106 346q129 168 341 168q143 0 252 -82q177 -134 177 -427q0 -23 -1 -63h-521q8 -147 83 -147q60 0 79 68zM579 594q-2 42 -14 69q-22 52 -69 52q-77 0 -82 -121h165z
M625 1086h-203l-180 303h286z" />
    <glyph glyph-name="ecircumflex" unicode="&#xea;" horiz-adv-x="985" vert-adv-y="2457" 
d="M571 324l347 -7q-25 -112 -80 -183q-120 -155 -346 -155q-199 0 -317 123q-120 126 -120 359q0 208 106 346q129 168 341 168q143 0 252 -82q177 -134 177 -427q0 -23 -1 -63h-521q8 -147 83 -147q60 0 79 68zM579 594q-2 42 -14 69q-22 52 -69 52q-77 0 -82 -121h165z
M805 1085h-260l-72 138l-80 -138h-211l157 284h320z" />
    <glyph glyph-name="edieresis" unicode="&#xeb;" horiz-adv-x="985" vert-adv-y="2457" 
d="M571 324l347 -7q-25 -112 -80 -183q-120 -155 -346 -155q-199 0 -317 123q-120 126 -120 359q0 208 106 346q129 168 341 168q143 0 252 -82q177 -134 177 -427q0 -23 -1 -63h-521q8 -147 83 -147q60 0 79 68zM579 594q-2 42 -14 69q-22 52 -69 52q-77 0 -82 -121h165z
M296 1381q61 0 104 -42q45 -44 45 -108q0 -58 -42 -102q-43 -44 -105 -44t-106 44q-43 44 -43 105q0 62 43 104q43 43 104 43zM689 1381q61 0 104 -42q45 -44 45 -108q0 -59 -42 -102q-43 -44 -105 -44t-106 44q-43 44 -43 105q0 62 43 104q44 43 104 43z" />
    <glyph glyph-name="iacute" unicode="&#xed;" horiz-adv-x="519" vert-adv-y="2457" 
d="M437 0h-355v956h355v-956zM138 1086l97 303h286l-180 -303h-203z" />
    <glyph glyph-name="igrave" unicode="&#xec;" horiz-adv-x="519" vert-adv-y="2457" 
d="M436 0h-355v956h355v-956zM382 1086h-203l-180 303h286z" />
    <glyph glyph-name="icircumflex" unicode="&#xee;" horiz-adv-x="519" vert-adv-y="2457" 
d="M437 0h-355v956h355v-956zM584 1085h-260l-72 138l-80 -138h-211l157 284h320z" />
    <glyph glyph-name="idieresis" unicode="&#xef;" horiz-adv-x="519" vert-adv-y="2457" 
d="M437 0h-355v956h355v-956zM424 1345q54 0 92 -38t38 -93q0 -53 -38 -91t-91 -38q-56 0 -94 39q-37 38 -37 92q0 55 39 92t91 37zM94 1345q53 0 90 -36q40 -38 40 -94q0 -52 -38 -91t-92 -39t-92 38t-38 92t37 91q39 39 93 39z" />
    <glyph glyph-name="ntilde" unicode="&#xf1;" horiz-adv-x="1005" vert-adv-y="2457" 
d="M923 0h-355v506q0 67 -13 91q-13 26 -44 26q-74 0 -74 -141v-482h-355v956h355q-2 -65 -8 -182q86 203 251 203q82 0 147 -55q96 -79 96 -270v-652zM669 1363h183v-29q0 -101 -57 -173t-158 -72q-63 0 -154 42q-59 27 -86 27q-51 0 -54 -73h-187q0 75 11 115
q20 69 76 115q49 41 120 41q51 0 109 -21l81 -34q32 -14 59 -14q52 0 57 76z" />
    <glyph glyph-name="oacute" unicode="&#xf3;" horiz-adv-x="998" vert-adv-y="2457" 
d="M496 976q232 0 351 -165q97 -133 97 -348q0 -210 -114 -344q-120 -140 -336 -140q-203 0 -318 132q-121 139 -121 363q0 217 116 358q120 144 325 144zM499 708q-37 0 -63 -45q-37 -64 -37 -186q0 -132 44 -196q24 -34 57 -34q37 0 63 45q37 64 37 182q0 137 -44 200
q-23 34 -57 34zM377 1086l97 303h286l-180 -303h-203z" />
    <glyph glyph-name="ograve" unicode="&#xf2;" horiz-adv-x="998" vert-adv-y="2457" 
d="M496 976q232 0 351 -165q97 -133 97 -348q0 -210 -114 -344q-120 -140 -336 -140q-203 0 -318 132q-121 139 -121 363q0 217 116 358q120 144 325 144zM499 708q-37 0 -63 -45q-37 -64 -37 -186q0 -132 44 -196q24 -34 57 -34q37 0 63 45q37 64 37 182q0 137 -44 200
q-23 34 -57 34zM624 1086h-203l-180 303h286z" />
    <glyph glyph-name="ocircumflex" unicode="&#xf4;" horiz-adv-x="998" vert-adv-y="2457" 
d="M496 976q232 0 351 -165q97 -133 97 -348q0 -210 -114 -344q-120 -140 -336 -140q-203 0 -318 132q-121 139 -121 363q0 217 116 358q120 144 325 144zM499 708q-37 0 -63 -45q-37 -64 -37 -186q0 -132 44 -196q24 -34 57 -34q37 0 63 45q37 64 37 182q0 137 -44 200
q-23 34 -57 34zM811 1085h-260l-72 138l-80 -138h-211l157 284h320z" />
    <glyph glyph-name="odieresis" unicode="&#xf6;" horiz-adv-x="998" vert-adv-y="2457" 
d="M496 976q232 0 351 -165q97 -133 97 -348q0 -210 -114 -344q-120 -140 -336 -140q-203 0 -318 132q-121 139 -121 363q0 217 116 358q120 144 325 144zM499 708q-37 0 -63 -45q-37 -64 -37 -186q0 -132 44 -196q24 -34 57 -34q37 0 63 45q37 64 37 182q0 137 -44 200
q-23 34 -57 34zM302 1381q61 0 104 -42q45 -44 45 -108q0 -58 -42 -102q-43 -44 -105 -44t-106 44q-43 44 -43 105q0 62 43 104q43 43 104 43zM695 1381q61 0 104 -42q45 -44 45 -108q0 -59 -42 -102q-43 -44 -105 -44t-106 44q-43 44 -43 105q0 62 43 104q44 43 104 43z
" />
    <glyph glyph-name="otilde" unicode="&#xf5;" horiz-adv-x="998" vert-adv-y="2457" 
d="M496 976q232 0 351 -165q97 -133 97 -348q0 -210 -114 -344q-120 -140 -336 -140q-203 0 -318 132q-121 139 -121 363q0 217 116 358q120 144 325 144zM499 708q-37 0 -63 -45q-37 -64 -37 -186q0 -132 44 -196q24 -34 57 -34q37 0 63 45q37 64 37 182q0 137 -44 200
q-23 34 -57 34zM672 1363h183v-29q0 -101 -57 -173t-158 -72q-63 0 -154 42q-59 27 -86 27q-51 0 -54 -73h-187q0 75 11 115q20 69 76 115q49 41 120 41q51 0 109 -21l81 -34q32 -14 59 -14q52 0 57 76z" />
    <glyph glyph-name="uacute" unicode="&#xfa;" horiz-adv-x="1023" vert-adv-y="2457" 
d="M82 956h355v-539q0 -82 15 -110q16 -31 60 -31q43 0 59 31q15 28 15 110v539h355v-587q0 -149 -64 -231q-67 -86 -188 -128q-83 -30 -177 -30q-168 0 -292 88q-78 55 -109 129q-29 70 -29 172v587zM403 1086l97 303h286l-180 -303h-203z" />
    <glyph glyph-name="ugrave" unicode="&#xf9;" horiz-adv-x="1023" vert-adv-y="2457" 
d="M82 956h355v-539q0 -82 15 -110q16 -31 60 -31q43 0 59 31q15 28 15 110v539h355v-587q0 -149 -64 -231q-67 -86 -188 -128q-83 -30 -177 -30q-168 0 -292 88q-78 55 -109 129q-29 70 -29 172v587zM629 1086h-203l-180 303h286z" />
    <glyph glyph-name="ucircumflex" unicode="&#xfb;" horiz-adv-x="1023" vert-adv-y="2457" 
d="M82 956h355v-539q0 -82 15 -110q16 -31 60 -31q43 0 59 31q15 28 15 110v539h355v-587q0 -149 -64 -231q-67 -86 -188 -128q-83 -30 -177 -30q-168 0 -292 88q-78 55 -109 129q-29 70 -29 172v587zM823 1085h-260l-72 138l-80 -138h-211l157 284h320z" />
    <glyph glyph-name="udieresis" unicode="&#xfc;" horiz-adv-x="1023" vert-adv-y="2457" 
d="M82 956h355v-539q0 -82 15 -110q16 -31 60 -31q43 0 59 31q15 28 15 110v539h355v-587q0 -149 -64 -231q-67 -86 -188 -128q-83 -30 -177 -30q-168 0 -292 88q-78 55 -109 129q-29 70 -29 172v587zM314 1381q61 0 104 -42q45 -44 45 -108q0 -58 -42 -102
q-43 -44 -105 -44t-106 44q-43 44 -43 105q0 62 43 104q43 43 104 43zM707 1381q61 0 104 -42q45 -44 45 -108q0 -59 -42 -102q-43 -44 -105 -44t-106 44q-43 44 -43 105q0 62 43 104q44 43 104 43z" />
    <glyph glyph-name="dagger" unicode="&#x2020;" horiz-adv-x="1092" vert-adv-y="2457" 
d="M711 -427h-328v1299h-328v287h328v335h328v-335h327v-287h-327v-1299z" />
    <glyph glyph-name="degree" unicode="&#xb0;" horiz-adv-x="1092" vert-adv-y="2457" 
d="M551 1399q137 0 237 -97q97 -93 97 -227q0 -133 -97 -227q-100 -97 -241 -97t-241 97q-97 94 -97 226q0 136 97 228q102 97 245 97zM547 1231q-67 0 -112 -46q-46 -45 -46 -110t46 -110q45 -46 110 -46t110 46q46 45 46 110q0 66 -46 110q-46 46 -108 46z" />
    <glyph glyph-name="cent" unicode="&#xa2;" horiz-adv-x="1090" vert-adv-y="2457" 
d="M668 223v-186h-172v226q-93 53 -147 122q-108 138 -108 331q0 186 99 327q54 76 156 128v162h172v-119q22 2 33 2q21 0 66 -8v-303q-63 -3 -97 -32q-60 -51 -60 -143q0 -76 43 -127q37 -44 90 -44q10 0 24 1v-330q-28 -3 -59 -5q-22 0 -40 -2z" />
    <glyph glyph-name="sterling" unicode="&#xa3;" horiz-adv-x="1090" vert-adv-y="2457" 
d="M836 326l183 -99q-96 -252 -324 -252q-84 0 -173 36q-75 30 -96 36t-56 6q-79 0 -176 -62l-102 168q91 66 160 98q19 34 25 52q12 33 12 86q0 81 -36 195h-126v191h67l-24 83q-24 83 -24 153q0 161 116 264q115 104 284 104q223 0 399 -190l-197 -196q-65 102 -136 102
q-45 0 -74 -37q-24 -31 -24 -68q0 -30 34 -139q12 -41 17 -76h330v-191h-308q-1 -149 -88 -264q49 -4 76 -11q29 -9 77 -32q45 -22 75 -22q63 0 109 65z" />
    <glyph glyph-name="section" unicode="&#xa7;" horiz-adv-x="1092" vert-adv-y="2457" 
d="M95 17h305q1 -76 15 -114q30 -76 130 -76q61 0 92 37q31 38 31 82q0 56 -55 99q-26 20 -114 67q-185 96 -258 153q-139 110 -139 286q0 174 147 287q-38 46 -58 76q-57 88 -57 199q0 168 120 278q121 111 314 111q199 0 308 -121q86 -96 91 -263q1 -28 1 -75h-292
q0 83 -9 116q-26 95 -123 95q-61 0 -91 -37q-21 -26 -21 -66q0 -55 44 -92q27 -23 225 -127q140 -74 203 -139q92 -96 92 -229q0 -167 -135 -275q66 -52 96 -100q54 -86 54 -197q0 -202 -154 -327q-124 -102 -313 -102q-159 0 -278 77q-136 88 -164 250q-7 44 -7 127z
M549 687q-72 0 -108 -49q-26 -35 -26 -81q0 -69 52 -110q34 -26 82 -26q59 0 93 33q41 38 41 99q0 56 -34 95q-35 39 -100 39z" />
    <glyph glyph-name="bullet" unicode="&#x2022;" horiz-adv-x="1365" vert-adv-y="2457" 
d="M689 978q113 0 196 -83q84 -83 84 -201t-83 -201t-201 -83q-116 0 -199 82q-85 84 -85 202q0 121 84 202q86 82 204 82z" />
    <glyph glyph-name="paragraph" unicode="&#xb6;" horiz-adv-x="1092" vert-adv-y="2457" 
d="M281 -203v900q-74 2 -132 44q-108 79 -108 270q0 214 126 300q78 54 215 54h669v-321h-135v-1247h-238v1247h-159v-1247h-238z" />
    <glyph glyph-name="germandbls" unicode="&#xdf;" horiz-adv-x="1077" vert-adv-y="2457" 
d="M475 0h-355v671h-98v285h98q0 181 24 266q38 136 160 219q113 76 247 76q165 0 288 -108q130 -114 130 -286q0 -141 -84 -230q-36 -38 -102 -54q79 -13 121 -51q57 -51 88 -132q30 -82 30 -170q0 -133 -61 -257q-109 -221 -396 -229v292q46 14 64 51q26 53 26 140
q0 176 -90 188v285q68 6 68 125t-80 119q-42 0 -61 -31q-17 -28 -17 -98v-1071z" />
    <glyph glyph-name="registered" unicode="&#xae;" horiz-adv-x="1556" vert-adv-y="2457" 
d="M1127 273h-280l-104 262v-262h-259v819h251q161 0 241 -57q108 -77 108 -219q0 -145 -126 -201l-6 -3zM744 719q32 1 53 20q29 27 29 75q0 79 -82 83v-178zM790 1396q190 0 360 -105q170 -106 260 -284q78 -154 78 -325q0 -201 -104 -372t-281 -262q-152 -79 -323 -79
q-199 0 -369 103q-172 105 -264 285q-79 154 -79 325q0 203 105 375q103 170 286 262q151 77 331 77zM787 1247q-232 0 -394 -163q-162 -165 -162 -403q0 -234 163 -400q161 -164 386 -164t385 165q160 166 160 400q0 159 -80 296q-79 133 -217 207q-115 62 -241 62z" />
    <glyph glyph-name="copyright" unicode="&#xa9;" horiz-adv-x="1556" vert-adv-y="2457" 
d="M991 553l-16 -261q-84 -34 -152 -34q-167 0 -272 122q-95 111 -95 300q0 204 119 321q108 106 277 106q61 0 127 -24v-259l-30 27q-43 41 -90 41q-67 0 -103 -57q-35 -57 -35 -152q0 -85 30 -139q35 -62 104 -62q50 0 100 41q5 4 14 12zM790 1396q190 0 360 -105
q170 -106 260 -284q78 -154 78 -325q0 -201 -104 -372t-281 -262q-152 -79 -323 -79q-199 0 -369 103q-172 105 -264 285q-79 154 -79 325q0 203 105 375q103 170 286 262q151 77 331 77zM787 1247q-232 0 -394 -163q-162 -165 -162 -403q0 -234 163 -400q161 -164 386 -164
t385 165q160 166 160 400q0 159 -80 296q-79 133 -217 207q-115 62 -241 62z" />
    <glyph glyph-name="trademark" unicode="&#x2122;" horiz-adv-x="1365" vert-adv-y="2457" 
d="M339 587h-228v581h-118v197h469v-197h-123v-581zM1333 587h-237l-19 400l-78 -400h-187l-63 380l-22 -380h-244l93 778h279l58 -335l66 335h276z" />
    <glyph glyph-name="acute" unicode="&#xb4;" vert-adv-y="2457" 
d="M403 1086l97 303h286l-180 -303h-203z" />
    <glyph glyph-name="dieresis" unicode="&#xa8;" vert-adv-y="2457" 
d="M314 1381q61 0 104 -42q45 -44 45 -108q0 -58 -42 -102q-43 -44 -105 -44t-106 44q-43 44 -43 105q0 62 43 104q43 43 104 43zM707 1381q61 0 104 -42q45 -44 45 -108q0 -59 -42 -102q-43 -44 -105 -44t-106 44q-43 44 -43 105q0 62 43 104q44 43 104 43z" />
    <glyph glyph-name="notequal" unicode="&#x2260;" vert-adv-y="2457" 
d="M514 1021l148 273l237 -134l-81 -139h138v-323h-269l-76 -135h343v-323h-461l-123 -220l-237 133l55 87h-120v323h238l78 135h-315v323h445z" />
    <glyph glyph-name="AE" unicode="&#xc6;" horiz-adv-x="1260" vert-adv-y="2457" 
d="M1198 0h-525l-24 173h-238l-29 -173h-382l316 1365h882v-321h-367l31 -199h308v-309h-254l36 -208h246v-328zM457 457h153l-48 352q-8 56 -23 226l-8 -71q-17 -139 -28 -209z" />
    <glyph glyph-name="Oslash" unicode="&#xd8;" horiz-adv-x="1161" vert-adv-y="2457" 
d="M164 -39l-129 89l126 187q-47 86 -64 143q-36 119 -36 293q0 328 135 517q67 94 166 147q101 53 219 53q175 0 325 -135l91 131l133 -93l-121 -175q44 -95 62 -169q28 -117 28 -252q0 -337 -150 -537q-64 -85 -171 -137q-98 -48 -205 -48q-113 0 -215 54q-39 21 -96 68z
M487 389q26 -80 95 -80q57 0 94 72q52 99 52 274q0 32 -4 104zM673 972q-31 85 -97 85q-54 0 -92 -73q-51 -99 -51 -277q0 -36 3 -105z" />
    <glyph glyph-name="infinity" unicode="&#x221e;" horiz-adv-x="1365" vert-adv-y="2457" 
d="M689 532q-147 -168 -323 -168q-156 0 -253 108q-78 88 -78 223q0 161 111 253q93 78 219 78q169 0 313 -167q137 167 321 167q168 0 264 -121q68 -85 68 -209q0 -157 -105 -250q-94 -82 -223 -82q-177 0 -314 168zM807 695q76 -106 155 -106q48 0 81 33q30 30 30 73
q0 51 -40 82q-32 24 -72 24q-61 0 -117 -59q-14 -16 -28 -35zM559 695q-76 105 -155 105q-48 0 -81 -32q-30 -30 -30 -74q0 -50 40 -81q32 -24 72 -24q61 0 117 59q8 9 23 27.5t14 19.5z" />
    <glyph glyph-name="plusminus" unicode="&#xb1;" horiz-adv-x="1090" vert-adv-y="2457" 
d="M67 590v213h369v364h218v-364h369v-213h-369v-351h-218v351h-369zM67 -55v213h956v-213h-956z" />
    <glyph glyph-name="lessequal" unicode="&#x2264;" vert-adv-y="2457" 
d="M955 1375v-361l-465 -123l463 -122l2 -361l-887 323v322zM955 356v-340h-887v340h887z" />
    <glyph glyph-name="greaterequal" unicode="&#x2265;" vert-adv-y="2457" 
d="M68 408l2 361l463 122l-465 123v361l887 -322v-323zM68 16v340h887v-340h-887z" />
    <glyph glyph-name="yen" unicode="&#xa5;" horiz-adv-x="1092" vert-adv-y="2457" 
d="M1046 605v-147h-304v-458h-369v458h-326v147h314l-58 135h-256v147h193l-206 478h384l67 -203q39 -118 63 -219q40 151 62 218l67 204h381l-192 -478h180v-147h-239l-55 -135h294z" />
    <glyph glyph-name="mu" unicode="&#xb5;" horiz-adv-x="1023" vert-adv-y="2457" 
d="M438 -419h-356v1375h355v-539q0 -82 15 -110q16 -31 60 -31q43 0 59 31q15 28 15 110v539h355v-587q0 -149 -64 -231q-67 -86 -188 -128q-83 -30 -173 -30q-79 0 -157 28z" />
    <glyph glyph-name="partialdiff" unicode="&#x2202;" vert-adv-y="2457" 
d="M96 1073l42 281q397 -38 611 -219q250 -211 250 -577q0 -319 -185 -471q-128 -104 -319 -104q-209 0 -337 131q-137 139 -137 347q0 121 58 220q79 137 228 183q60 18 126 18q139 0 220 -62q-49 86 -107 128q-151 105 -450 125zM510 613q-65 0 -112 -45q-52 -49 -52 -126
q0 -71 48 -121q48 -49 113 -49q64 0 111 47q50 50 50 124q0 76 -50 124q-47 46 -108 46z" />
    <glyph glyph-name="summation" unicode="&#x2211;" horiz-adv-x="1365" vert-adv-y="2457" 
d="M1298 1536v-550h-330l-41 213h-446l488 -659l-485 -715h461l24 226h348v-563h-1248v387l465 664l-465 608v389h1229z" />
    <glyph glyph-name="product" unicode="&#x220f;" horiz-adv-x="1365" vert-adv-y="2457" 
d="M30 1536h1305v-293h-145v-1462h145v-293h-594v293h121v1462h-359v-1462h119v-293h-592v293h148v1462h-148v293z" />
    <glyph glyph-name="pi" unicode="&#x3c0;" horiz-adv-x="1141" vert-adv-y="2457" 
d="M636 671h-131v-671h-355v671h-109v285h1059v-285h-109v-671h-355v671z" />
    <glyph glyph-name="integral" unicode="&#x222b;" vert-adv-y="2457" 
d="M41 -492l58 348q55 -20 92 -20q49 0 83 28q36 30 40 98q1 25 1 184v664v192q0 147 23 238q37 144 170 228q107 68 277 68q80 0 199 -20l-59 -348q-53 20 -93 20q-83 0 -112 -71q-10 -26 -10 -115v-778q0 -240 -1.5 -288t-10.5 -96q-31 -172 -159 -267q-115 -84 -304 -84
q-84 0 -194 19z" />
    <glyph glyph-name="ordfeminine" unicode="&#xaa;" horiz-adv-x="582" vert-adv-y="2457" 
d="M535 806h-203q4 62 7 92q-52 -104 -142 -104q-81 0 -125 85q-41 79 -41 205q0 131 48 208q45 73 124 73q82 0 131 -99q-3 36 -5 87h206v-547zM286 1197q-50 0 -50 -135q0 -99 46 -99q47 0 47 125q0 49 -6 74q-8 35 -37 35zM535 601h-504v109h504v-109z" />
    <glyph glyph-name="ordmasculine" unicode="&#xba;" horiz-adv-x="573" vert-adv-y="2457" 
d="M284 1365q133 0 202 -94q56 -77 56 -199q0 -121 -66 -198q-69 -80 -193 -80q-116 0 -183 76q-69 79 -69 208q0 124 67 204q69 83 186 83zM286 1212q-21 0 -36 -26q-21 -35 -21 -106q0 -78 25 -112q14 -20 33 -20q21 0 36 26q21 36 21 104q0 79 -25 114q-14 20 -33 20z
M536 601h-504v109h504v-109z" />
    <glyph glyph-name="uni2126" unicode="&#x2126;" horiz-adv-x="1365" vert-adv-y="2457" 
d="M57 0v312h246q-103 65 -155 132q-97 124 -97 316q0 260 172 445q181 195 459 195q280 0 461 -195q171 -184 171 -446q0 -201 -106 -328q-51 -59 -146 -119h246v-312h-559v285q98 50 147 130q70 114 70 293q0 157 -61 256q-37 60 -94 97q-60 38 -128 38q-129 0 -211 -120
q-72 -107 -72 -273q0 -207 90 -321q46 -59 127 -100v-285h-560z" />
    <glyph glyph-name="ae" unicode="&#xe6;" horiz-adv-x="1505" vert-adv-y="2457" 
d="M1100 314l337 -7q-38 -147 -115 -221q-113 -107 -312 -107q-161 0 -283 99q-144 -98 -308 -98q-155 0 -257 91q-107 95 -107 240q0 151 110 237q89 69 238 69q73 0 180 -20q-18 116 -188 116q-124 0 -235 -55v277q166 43 285 43q144 0 234 -52q27 -15 60 -42
q133 94 275 94q148 0 264 -89q173 -133 173 -417q0 -20 -2 -66h-524q9 -165 93 -165q57 0 82 73zM493 391q-44 0 -69 -26q-23 -25 -23 -60q0 -41 30 -64q24 -18 63 -18q42 0 65 21q27 24 27 62q0 44 -30 66q-26 19 -63 19zM1104 597q-17 133 -93 133q-72 0 -85 -133h178z
" />
    <glyph glyph-name="oslash" unicode="&#xf8;" horiz-adv-x="998" vert-adv-y="2457" 
d="M289 23l-95 -137l-138 98l102 150q-103 142 -103 341q0 215 116 357q119 144 325 144q114 0 215 -47l94 134l139 -96l-103 -147q103 -139 103 -351q0 -216 -114 -350q-120 -140 -336 -140q-107 0 -205 44zM499 708q-37 0 -63 -45q-37 -64 -37 -186q0 -132 44 -196
q24 -34 57 -34q37 0 63 45q37 64 37 182q0 137 -44 200q-23 34 -57 34z" />
    <glyph glyph-name="questiondown" unicode="&#xbf;" horiz-adv-x="1041" vert-adv-y="2457" 
d="M517 1034q87 0 148 -62q59 -60 59 -145q0 -86 -61 -147q-61 -60 -145 -60q-87 0 -148 61q-60 60 -60 149q0 86 62 145q63 59 145 59zM344 522h351v-334q-37 2 -55 2q-91 0 -133 -30q-59 -43 -59 -150q0 -90 34 -132q16 -19 44 -19q76 0 78 156h355q-1 -163 -58 -265
q-49 -86 -145 -138q-106 -57 -230 -57q-193 0 -320 127q-124 125 -124 322q0 126 60 229q63 110 202 148v141z" />
    <glyph glyph-name="exclamdown" unicode="&#xa1;" horiz-adv-x="659" vert-adv-y="2457" 
d="M331 1035q86 0 147 -62q59 -60 59 -145q0 -86 -61 -147q-60 -60 -145 -60q-87 0 -148 61q-60 60 -60 149q0 86 62 145q63 59 146 59zM145 527h360v-954h-360v954z" />
    <glyph glyph-name="logicalnot" unicode="&#xac;" vert-adv-y="2457" 
d="M577 0v270h-509v340h887v-610h-378z" />
    <glyph glyph-name="radical" unicode="&#x221a;" horiz-adv-x="1365" vert-adv-y="2457" 
d="M1365 1693v-303h-319l-326 -1390h-432l-98 484h-190v303h397l42 -184q22 -99 31 -297h21q23 287 100 608l186 779h588z" />
    <glyph glyph-name="florin" unicode="&#x192;" horiz-adv-x="1091" vert-adv-y="2457" 
d="M835 673h-109l-100 -589q-27 -161 -90 -236q-100 -120 -273 -120q-58 0 -155 27l44 291q52 -4 65 -4q45 0 67 15q22 16 29 59l92 557h-112l47 287h113l33 199q31 182 105 260q77 82 229 82q54 0 163 -23l-39 -283q-21 3 -32 4q-24 4 -35 4q-61 0 -73 -70l-31 -173h110z
" />
    <glyph glyph-name="approxequal" unicode="&#x2248;" vert-adv-y="2457" 
d="M199 713l-185 131q39 101 84 167q95 139 236 139q52 0 138 -31l162 -60q38 -15 67 -15q40 0 73 26q19 16 50 60l185 -130q-42 -105 -71 -150q-99 -155 -251 -155q-69 0 -229 65q-100 40 -141 40q-58 0 -118 -87zM199 218l-185 131q39 101 84 167q95 139 236 139
q52 0 138 -31l162 -60q38 -15 67 -15q40 0 73 26q19 15 50 61l185 -131q-42 -104 -71 -150q-99 -155 -251 -155q-69 0 -229 65q-100 40 -141 40q-58 0 -118 -87z" />
    <glyph glyph-name="Delta" unicode="&#x2206;" horiz-adv-x="1356" vert-adv-y="2457" 
d="M19 0l466 1365h381l472 -1365h-1319zM485 318h378l-184 661z" />
    <glyph glyph-name="guillemotleft" unicode="&#xab;" horiz-adv-x="988" vert-adv-y="2457" 
d="M366 80l-311 412l311 411l158 -120l-232 -291l232 -292zM775 80l-310 412l310 411l159 -120l-232 -291l232 -292z" />
    <glyph glyph-name="guillemotright" unicode="&#xbb;" horiz-adv-x="988" vert-adv-y="2457" 
d="M623 80l-158 120l232 292l-232 291l158 120l311 -411zM214 80l-159 120l232 292l-232 291l159 120l310 -411z" />
    <glyph glyph-name="ellipsis" unicode="&#x2026;" horiz-adv-x="2049" vert-adv-y="2457" 
d="M339 394q85 0 146 -59q63 -62 63 -152q0 -83 -60 -143q-61 -60 -146 -60q-87 0 -148 62q-60 62 -60 147t59 144q62 61 146 61zM1022 394q85 0 146 -59q63 -62 63 -152q0 -83 -60 -143q-61 -60 -146 -60q-87 0 -148 62q-60 62 -60 147t59 144q62 61 146 61zM1704 394
q85 0 146 -59q63 -62 63 -152q0 -83 -60 -143q-61 -60 -146 -60q-87 0 -148 62q-60 61 -60 147t59 144q62 61 146 61z" />
    <glyph glyph-name="glyph172" horiz-adv-x="1090" vert-adv-y="1090" 
 />
    <glyph glyph-name="Agrave" unicode="&#xc0;" horiz-adv-x="1090" vert-adv-y="2457" 
d="M1079 0h-381l-27 173h-249l-30 -173h-381l328 1365h451zM628 465l-24 159q-19 123 -46 415q-9 -72 -14 -108q-9 -78 -23 -171l-11 -80l-38 -215h156zM310 1783h289l89 -309h-205z" />
    <glyph glyph-name="Atilde" unicode="&#xc3;" horiz-adv-x="1090" vert-adv-y="2457" 
d="M1079 0h-381l-27 173h-249l-30 -173h-381l328 1365h451zM628 465l-24 159q-19 123 -46 415q-9 -72 -14 -108q-9 -78 -23 -171l-11 -80l-38 -215h156zM725 1752h183v-29q0 -100 -57 -172t-158 -72q-63 0 -154 41q-59 27 -86 27q-51 0 -54 -72h-187q0 75 11 114
q20 70 76 116q49 40 120 40q51 0 109 -20l81 -34q32 -14 59 -14q52 0 57 75z" />
    <glyph glyph-name="Otilde" unicode="&#xd5;" horiz-adv-x="1161" vert-adv-y="2457" 
d="M584 1390q165 0 291 -104q224 -185 224 -608q0 -331 -156 -527q-66 -83 -159 -130q-93 -46 -196 -46q-151 0 -282 95q-245 179 -245 623q0 337 161 523q150 174 362 174zM584 1046q-57 0 -93 -74q-48 -96 -48 -289q0 -212 51 -303q33 -60 84 -60q50 0 87 63q51 86 51 292
q0 371 -132 371zM753 1752h183v-29q0 -100 -57 -172t-158 -72q-63 0 -154 41q-59 27 -86 27q-51 0 -54 -72h-187q0 75 11 114q20 70 76 116q49 40 120 40q51 0 109 -20l81 -34q32 -14 59 -14q52 0 57 75z" />
    <glyph glyph-name="OE" unicode="&#x152;" horiz-adv-x="1450" vert-adv-y="2457" 
d="M1388 0h-686l-28 -3q-124 -14 -153 -14q-113 0 -221 82q-239 180 -239 619q0 347 163 541q68 81 164 122q73 32 149 32q12 0 194 -14h654v-321h-308v-199h278v-309h-278v-208h311v-328zM585 1045q-59 0 -98 -83q-44 -93 -44 -293q0 -215 59 -302q33 -48 79 -48
q133 0 133 368q0 358 -129 358z" />
    <glyph glyph-name="oe" unicode="&#x153;" horiz-adv-x="1510" vert-adv-y="2457" 
d="M1103 316l337 -6q-35 -144 -135 -229q-119 -101 -292 -101q-136 0 -263 66q-107 -66 -231 -66q-216 0 -342 135q-122 132 -122 371q0 223 115 351q125 141 338 141q135 0 259 -69q119 69 251 69q197 0 320 -140q118 -135 118 -355q0 -26 -2 -76h-526q9 -164 93 -164
q59 0 82 73zM501 712q-36 0 -62 -45q-37 -64 -37 -187q0 -134 44 -198q23 -34 56 -34q37 0 63 45q37 64 37 184q0 138 -43 201q-24 34 -58 34zM1107 598q-18 131 -93 131q-72 0 -85 -131h178z" />
    <glyph glyph-name="endash" unicode="&#x2013;" horiz-adv-x="1090" vert-adv-y="2457" 
d="M970 355h-849v273h849v-273z" />
    <glyph glyph-name="emdash" unicode="&#x2014;" horiz-adv-x="1331" vert-adv-y="2457" 
d="M1331 355h-1331v273h1331v-273z" />
    <glyph glyph-name="quotedblleft" unicode="&#x201c;" horiz-adv-x="1164" vert-adv-y="2457" 
d="M82 709l238 656h291l-167 -656h-362zM567 709l238 656h291l-167 -656h-362z" />
    <glyph glyph-name="quotedblright" unicode="&#x201d;" horiz-adv-x="1164" vert-adv-y="2457" 
d="M1096 1365l-238 -656h-291l167 656h362zM611 1365l-238 -656h-291l167 656h362z" />
    <glyph glyph-name="quoteleft" unicode="&#x2018;" horiz-adv-x="679" vert-adv-y="2457" 
d="M82 709l238 656h291l-167 -656h-362z" />
    <glyph glyph-name="quoteright" unicode="&#x2019;" horiz-adv-x="666" vert-adv-y="2457" 
d="M597 1365l-238 -656h-291l167 656h362z" />
    <glyph glyph-name="divide" unicode="&#xf7;" horiz-adv-x="1092" vert-adv-y="2457" 
d="M82 590v213h928v-213h-928zM544 482q69 0 119 -48q51 -50 51 -124q0 -67 -49 -116t-119 -49q-71 0 -120 51q-49 49 -49 119t48 118q51 49 119 49zM544 1249q69 0 119 -48q51 -50 51 -124q0 -67 -49 -116t-119 -49q-71 0 -120 51q-49 49 -49 119t48 118q51 49 119 49z" />
    <glyph glyph-name="lozenge" unicode="&#x25ca;" horiz-adv-x="1365" vert-adv-y="2457" 
d="M683 1419l531 -736l-531 -736l-532 736zM683 1238l-404 -555l404 -554l403 554z" />
    <glyph glyph-name="ydieresis" unicode="&#xff;" horiz-adv-x="934" vert-adv-y="2457" 
d="M495 -401h-366l155 441l-284 916h356l69 -274q28 -113 43 -268q37 252 58 335l53 207h355zM269 1381q61 0 104 -42q45 -44 45 -108q0 -58 -42 -102q-43 -44 -105 -44t-106 44q-43 44 -43 105q0 62 43 104q43 43 104 43zM662 1381q61 0 104 -42q45 -44 45 -108
q0 -59 -42 -102q-43 -44 -105 -44t-106 44q-43 44 -43 105q0 62 43 104q44 43 104 43z" />
    <glyph glyph-name="Ydieresis" unicode="&#x178;" horiz-adv-x="1025" vert-adv-y="2457" 
d="M708 0h-369v578l-339 787h384l67 -202q39 -118 63 -220q40 151 62 218l67 204h382l-317 -787v-578zM715 1772q62 0 106 -44q43 -43 43 -106q0 -59 -43 -103t-105 -44q-63 0 -106 45q-43 44 -43 105q0 63 44 105q45 42 104 42zM309 1771q60 0 103 -41q45 -44 45 -107
q0 -59 -43 -104q-43 -44 -105 -44t-105 44q-43 43 -43 104q0 62 42 104q44 44 106 44z" />
    <glyph glyph-name="fraction" unicode="&#x2044;" horiz-adv-x="285" vert-adv-y="2457" 
d="M-181 -91l-147 81l789 1466l151 -80z" />
    <glyph glyph-name="Euro" unicode="&#x20ac;" horiz-adv-x="947" vert-adv-y="2457" 
d="M113 487h-113v147h98q-1 19 -1 40q0 25 1 52h-98v147h114q26 139 91 244q85 136 219 207q123 66 277 66q95 0 182 -34v-390q-31 31 -54 47q-50 36 -114 36q-152 0 -215 -176h215v-147h-240q-1 -27 -1 -44q0 -21 2 -48h239v-147h-211q64 -155 203 -155q74 0 140 46
q20 14 52 43l-22 -396q-116 -50 -219 -50q-202 0 -350 133q-151 137 -195 379z" />
    <glyph glyph-name="guilsinglleft" unicode="&#x2039;" horiz-adv-x="579" vert-adv-y="2457" 
d="M366 80l-311 412l311 411l158 -120l-232 -291l232 -292z" />
    <glyph glyph-name="guilsinglright" unicode="&#x203a;" horiz-adv-x="579" vert-adv-y="2457" 
d="M214 80l-159 120l232 292l-232 291l159 120l310 -411z" />
    <glyph glyph-name="fi" unicode="&#xfb01;" horiz-adv-x="1121" vert-adv-y="2457" 
d="M478 0h-355v671h-102v285h102v176q0 173 68 259q92 117 247 117q71 0 167 -25v-329q-45 34 -73 34q-34 0 -46 -31q-8 -20 -8 -68v-133h127v-285h-127v-671zM1040 0h-355v956h355v-956zM862 1461q85 0 146 -59q62 -60 62 -150q0 -82 -59 -143q-61 -62 -148 -62
q-85 0 -146 60q-61 61 -61 148q0 86 60 145q62 61 146 61z" />
    <glyph glyph-name="fl" unicode="&#xfb02;" horiz-adv-x="1121" vert-adv-y="2457" 
d="M478 0h-355v671h-102v285h102v176q0 173 68 259q92 117 247 117q71 0 167 -25v-329q-45 34 -73 34q-34 0 -46 -31q-8 -20 -8 -68v-133h127v-285h-127v-671zM1040 0h-355v1494h355v-1494z" />
    <glyph glyph-name="daggerdbl" unicode="&#x2021;" horiz-adv-x="1092" vert-adv-y="2457" 
d="M383 875h-328v281h328v338h328v-338h327v-281h-327v-408h327v-281h-327v-613h-328v613h-328v281h328v408z" />
    <glyph glyph-name="periodcentered" unicode="&#xb7;" horiz-adv-x="598" vert-adv-y="2457" 
d="M296 698q85 0 146 -59q63 -61 63 -152q0 -82 -60 -142t-146 -60q-87 0 -147 62q-60 61 -60 146q0 86 59 144q61 61 145 61z" />
    <glyph glyph-name="quotesinglbase" unicode="&#x201a;" horiz-adv-x="666" vert-adv-y="2457" 
d="M597 326l-238 -656h-291l167 656h362z" />
    <glyph glyph-name="quotedblbase" unicode="&#x201e;" horiz-adv-x="1150" vert-adv-y="2457" 
d="M1082 326l-238 -656h-291l167 656h362zM597 326l-238 -656h-291l167 656h362z" />
    <glyph glyph-name="perthousand" unicode="&#x2030;" horiz-adv-x="2067" vert-adv-y="2457" 
d="M355 1386q132 0 214 -93q79 -90 79 -239q0 -132 -68 -227q-77 -109 -221 -109q-82 0 -157 41q-147 80 -147 300q0 152 80 236q87 91 220 91zM352 1185q-57 0 -57 -134t58 -134q55 0 55 130q0 138 -56 138zM1065 647q132 0 214 -93q79 -90 79 -239q0 -132 -68 -228
q-77 -108 -221 -108q-83 0 -157 41q-147 80 -147 299q0 153 80 237q87 91 220 91zM1062 446q-57 0 -57 -134t58 -134q55 0 55 130q0 138 -56 138zM292 -48l-142 103l966 1366l147 -103zM1720 647q132 0 214 -93q79 -90 79 -239q0 -132 -68 -228q-78 -108 -221 -108
q-82 0 -157 41q-147 80 -147 299q0 153 80 237q87 91 220 91zM1717 446q-57 0 -57 -134t58 -134q55 0 55 130q0 138 -56 138z" />
    <glyph glyph-name="Acircumflex" unicode="&#xc2;" horiz-adv-x="1090" vert-adv-y="2457" 
d="M1079 0h-381l-27 173h-249l-30 -173h-381l328 1365h451zM628 465l-24 159q-19 123 -46 415q-9 -72 -14 -108q-9 -78 -23 -171l-11 -80l-38 -215h156zM889 1474h-278l-71 123l-77 -123h-234l179 283h312z" />
    <glyph glyph-name="Ecircumflex" unicode="&#xca;" horiz-adv-x="842" vert-adv-y="2457" 
d="M96 0v1365h685v-321h-316v-199h284v-309h-284v-208h316v-328h-685zM770 1474h-278l-71 123l-77 -123h-234l179 283h312z" />
    <glyph glyph-name="Aacute" unicode="&#xc1;" horiz-adv-x="1090" vert-adv-y="2457" 
d="M1079 0h-381l-27 173h-249l-30 -173h-381l328 1365h451zM628 465l-24 159q-19 123 -46 415q-9 -72 -14 -108q-9 -78 -23 -171l-11 -80l-38 -215h156zM817 1783l-173 -309h-205l89 309h289z" />
    <glyph glyph-name="Edieresis" unicode="&#xcb;" horiz-adv-x="842" vert-adv-y="2457" 
d="M96 0v1365h685v-321h-316v-199h284v-309h-284v-208h316v-328h-685zM641 1772q62 0 106 -44q43 -43 43 -106q0 -59 -43 -103t-105 -44q-63 0 -106 45q-43 44 -43 105q0 63 44 105q45 42 104 42zM235 1771q60 0 103 -41q45 -44 45 -107q0 -59 -43 -104q-43 -44 -105 -44
t-105 44q-43 43 -43 104q0 62 42 104q44 44 106 44z" />
    <glyph glyph-name="Egrave" unicode="&#xc8;" horiz-adv-x="842" vert-adv-y="2457" 
d="M96 0v1365h685v-321h-316v-199h284v-309h-284v-208h316v-328h-685zM200 1783h289l89 -309h-205z" />
    <glyph glyph-name="Iacute" unicode="&#xcd;" horiz-adv-x="560" vert-adv-y="2457" 
d="M465 0h-369v1365h369v-1365zM546 1783l-173 -309h-205l89 309h289z" />
    <glyph glyph-name="Icircumflex" unicode="&#xce;" horiz-adv-x="560" vert-adv-y="2457" 
d="M465 0h-369v1365h369v-1365zM624 1474h-278l-71 123l-77 -123h-234l179 283h312z" />
    <glyph glyph-name="Idieresis" unicode="&#xcf;" horiz-adv-x="560" vert-adv-y="2457" 
d="M465 0h-369v1365h369v-1365zM453 1735q54 0 92 -38t38 -93q0 -52 -38 -91q-37 -38 -91 -38q-55 0 -94 39q-37 38 -37 92q0 55 39 92t91 37zM109 1735q53 0 90 -36q40 -38 40 -94q0 -52 -38 -91t-92 -39t-92 38t-38 92t37 91q39 39 93 39z" />
    <glyph glyph-name="Igrave" unicode="&#xcc;" horiz-adv-x="560" vert-adv-y="2457" 
d="M465 0h-369v1365h369v-1365zM24 1783h289l89 -309h-205z" />
    <glyph glyph-name="Oacute" unicode="&#xd3;" horiz-adv-x="1161" vert-adv-y="2457" 
d="M584 1390q165 0 291 -104q224 -185 224 -608q0 -331 -156 -527q-66 -83 -159 -130q-93 -46 -196 -46q-151 0 -282 95q-245 179 -245 623q0 337 161 523q150 174 362 174zM584 1046q-57 0 -93 -74q-48 -96 -48 -289q0 -212 51 -303q33 -60 84 -60q50 0 87 63q51 86 51 292
q0 371 -132 371zM838 1783l-173 -309h-205l89 309h289z" />
    <glyph glyph-name="Ocircumflex" unicode="&#xd4;" horiz-adv-x="1161" vert-adv-y="2457" 
d="M584 1390q165 0 291 -104q224 -185 224 -608q0 -331 -156 -527q-66 -83 -159 -130q-93 -46 -196 -46q-151 0 -282 95q-245 179 -245 623q0 337 161 523q150 174 362 174zM584 1046q-57 0 -93 -74q-48 -96 -48 -289q0 -212 51 -303q33 -60 84 -60q50 0 87 63q51 86 51 292
q0 371 -132 371zM903 1474h-278l-71 123l-77 -123h-234l179 283h312z" />
    <glyph glyph-name="glyph210" horiz-adv-x="380" vert-adv-y="2457" 
 />
    <glyph glyph-name="Ograve" unicode="&#xd2;" horiz-adv-x="1161" vert-adv-y="2457" 
d="M584 1390q165 0 291 -104q224 -185 224 -608q0 -331 -156 -527q-66 -83 -159 -130q-93 -46 -196 -46q-151 0 -282 95q-245 179 -245 623q0 337 161 523q150 174 362 174zM584 1046q-57 0 -93 -74q-48 -96 -48 -289q0 -212 51 -303q33 -60 84 -60q50 0 87 63q51 86 51 292
q0 371 -132 371zM338 1783h289l89 -309h-205z" />
    <glyph glyph-name="Uacute" unicode="&#xda;" horiz-adv-x="1117" vert-adv-y="2457" 
d="M653 1365h369v-966q0 -146 -58 -231q-132 -193 -387 -193q-214 0 -348 118q-79 70 -107 165q-26 85 -26 193v914h369v-881q0 -79 16 -115q21 -49 79 -49q57 0 79 48q14 31 14 115v882zM831 1783l-173 -309h-205l89 309h289z" />
    <glyph glyph-name="Ucircumflex" unicode="&#xdb;" horiz-adv-x="1117" vert-adv-y="2457" 
d="M653 1365h369v-966q0 -146 -58 -231q-132 -193 -387 -193q-214 0 -348 118q-79 70 -107 165q-26 85 -26 193v914h369v-881q0 -79 16 -115q21 -49 79 -49q57 0 79 48q14 31 14 115v882zM889 1474h-278l-71 123l-77 -123h-234l179 283h312z" />
    <glyph glyph-name="Ugrave" unicode="&#xd9;" horiz-adv-x="1117" vert-adv-y="2457" 
d="M653 1365h369v-966q0 -146 -58 -231q-132 -193 -387 -193q-214 0 -348 118q-79 70 -107 165q-26 85 -26 193v914h369v-881q0 -79 16 -115q21 -49 79 -49q57 0 79 48q14 31 14 115v882zM303 1783h289l89 -309h-205z" />
    <glyph glyph-name="dotlessi" unicode="&#x131;" horiz-adv-x="519" vert-adv-y="2457" 
d="M437 0h-355v956h355v-956z" />
    <glyph glyph-name="circumflex" unicode="&#x2c6;" vert-adv-y="2457" 
d="M823 1085h-260l-72 138l-80 -138h-211l157 284h320z" />
    <glyph glyph-name="tilde" unicode="&#x2dc;" vert-adv-y="2457" 
d="M677 1363h183v-29q0 -101 -57 -173t-158 -72q-63 0 -154 42q-59 27 -86 27q-51 0 -54 -73h-187q0 75 11 115q20 69 76 115q49 41 120 41q51 0 109 -21l81 -34q32 -14 59 -14q52 0 57 76z" />
    <glyph glyph-name="macron" unicode="&#xaf;" vert-adv-y="2457" 
d="M191 1120v198h642v-198h-642z" />
    <glyph glyph-name="breve" unicode="&#x2d8;" vert-adv-y="2457" 
d="M191 1390h142q21 -53 48 -75q46 -35 136 -35q84 0 126 35q28 25 48 75h142q-29 -305 -319 -305q-166 0 -256 120q-58 76 -67 185z" />
    <glyph glyph-name="dotaccent" unicode="&#x2d9;" vert-adv-y="2457" 
d="M510 1396q64 0 110 -45q47 -46 47 -113q0 -61 -45 -107q-44 -46 -109 -46q-66 0 -112 46q-45 47 -45 111t45 108q46 46 109 46z" />
    <glyph glyph-name="ring" unicode="&#x2da;" vert-adv-y="2457" 
d="M559 1465q81 0 138 -57q59 -59 59 -143q0 -78 -57 -136t-139 -58q-81 0 -138 56q-59 58 -59 141q0 81 56 137q59 60 140 60zM558 1352q-34 0 -58 -24q-25 -25 -25 -60t24 -60t59 -25t59 25t24 59q0 36 -24 60q-24 25 -59 25z" />
    <glyph glyph-name="cedilla" unicode="&#xb8;" vert-adv-y="2457" 
d="M760 -203l-233 -240l-134 97l200 251z" />
    <glyph glyph-name="hungarumlaut" unicode="&#x2dd;" vert-adv-y="2457" 
d="M246 1086l97 303h252l-166 -303h-183zM587 1086l97 303h252l-166 -303h-183z" />
    <glyph glyph-name="ogonek" unicode="&#x2db;" vert-adv-y="2457" 
d="M504 0h125q-70 -63 -70 -128q0 -73 83 -73q28 0 68 12l-16 -143q-40 -18 -87 -18q-63 0 -116 24q-45 20 -71 60q-24 36 -24 79q0 98 108 187z" />
    <glyph glyph-name="caron" unicode="&#x2c7;" vert-adv-y="2457" 
d="M200 1369h260l72 -138l80 138h211l-157 -284h-320z" />
    <glyph glyph-name="uni00A0" unicode="&#xa0;" horiz-adv-x="380" vert-adv-y="2457" 
 />
    <glyph glyph-name="currency" unicode="&#xa4;" horiz-adv-x="1445" vert-adv-y="2457" 
d="M49 245l214 214q-73 129 -73 266q0 135 79 272l-219 217l184 184l221 -221q137 74 269 74q130 0 263 -71l219 216l182 -182l-213 -213q82 -140 82 -276q0 -130 -74 -265l214 -214l-182 -183l-213 212q-137 -81 -277 -81q-136 0 -280 80l-214 -211zM726 950
q-93 0 -158 -65q-66 -65 -66 -159q0 -92 65 -158q66 -66 157 -66q92 0 157 65q65 66 65 160t-66 158q-67 65 -154 65z" />
    <glyph glyph-name="brokenbar" unicode="&#xa6;" vert-adv-y="2457" 
d="M317 1365h391v-740h-391v740zM317 314h391v-655h-391v655z" />
    <glyph glyph-name="uni00AD" unicode="&#xad;" horiz-adv-x="444" vert-adv-y="2457" 
d="M444 355h-444v273h444v-273z" />
    <glyph glyph-name="twosuperior" unicode="&#xb2;" horiz-adv-x="721" vert-adv-y="2457" 
d="M639 546h-585l232 302q73 95 103 152q33 64 33 123q0 68 -49 68q-50 0 -50 -95q0 -10 2 -34h-227q-1 24 -1 36q0 119 77 200q78 81 205 81q122 0 197 -77q74 -76 74 -193q0 -121 -88 -241q-44 -59 -123 -134q77 6 200 7v-195z" />
    <glyph glyph-name="threesuperior" unicode="&#xb3;" horiz-adv-x="722" vert-adv-y="2457" 
d="M79 793h227q1 -31 5 -43q11 -30 46 -30q21 0 36 13q22 20 22 58q0 81 -89 81q-13 0 -41 -3v182q21 -2 31 -2q88 0 88 79q0 64 -44 64q-27 0 -34 -27q-3 -10 -6 -39h-226q7 97 60 161q76 93 214 93q113 0 187 -69q77 -71 77 -171q0 -111 -97 -170q108 -61 108 -189
q0 -114 -89 -186q-78 -63 -198 -63q-153 0 -231 101q-47 61 -47 142q0 5 1 18z" />
    <glyph glyph-name="onesuperior" unicode="&#xb9;" horiz-adv-x="722" vert-adv-y="2457" 
d="M511 545l-232 1v621h-90v198h322v-820z" />
    <glyph glyph-name="onequarter" unicode="&#xbc;" horiz-adv-x="1728" vert-adv-y="2457" 
d="M511 545l-232 1v621h-90v198h322v-820zM541 -91l-147 81l789 1466l151 -80zM1599 0h-233v164h-302v177l253 478h282v-472h71v-183h-71v-164zM1374 347l3 148q0 25 4 71q-72 -149 -120 -219h113z" />
    <glyph glyph-name="onehalf" unicode="&#xbd;" horiz-adv-x="1728" vert-adv-y="2457" 
d="M511 545l-232 1v621h-90v198h322v-820zM541 -91l-147 81l789 1466l151 -80zM1646 0h-586l233 302q74 96 103 152q33 64 33 123q0 68 -49 68q-50 0 -50 -95q0 -11 2 -34h-227q-1 23 -1 36q0 119 77 200q79 81 205 81q122 0 197 -77q74 -76 74 -193q0 -122 -88 -241
q-44 -59 -123 -134q77 6 200 7v-195z" />
    <glyph glyph-name="threequarters" unicode="&#xbe;" horiz-adv-x="1728" vert-adv-y="2457" 
d="M79 793h227q1 -31 5 -43q11 -30 46 -30q21 0 36 13q22 20 22 58q0 81 -89 81q-13 0 -41 -3v182q21 -2 31 -2q88 0 88 79q0 64 -44 64q-27 0 -34 -27q-3 -10 -6 -39h-226q7 97 60 161q76 93 214 93q113 0 187 -69q77 -71 77 -171q0 -111 -97 -170q108 -61 108 -189
q0 -114 -89 -186q-78 -63 -198 -63q-153 0 -231 101q-47 61 -47 142q0 5 1 18zM541 -91l-146 81l788 1466l152 -80zM1600 0h-233v164h-302v177l253 478h282v-472h71v-183h-71v-164zM1375 347l3 148q0 25 4 71q-74 -152 -120 -219h113z" />
    <glyph glyph-name="Eth" unicode="&#xd0;" horiz-adv-x="1100" vert-adv-y="2457" 
d="M96 0v594h-82v212h82v559h319q297 0 457 -180q168 -190 168 -503q0 -340 -169 -525q-92 -100 -228 -136q-82 -21 -202 -21h-345zM465 330q198 9 198 342q0 187 -68 287q-45 66 -118 66h-12v-219h109v-212h-109v-264z" />
    <glyph glyph-name="multiply" unicode="&#xd7;" horiz-adv-x="1090" vert-adv-y="2457" 
d="M110 975l156 157l281 -281l279 279l153 -153l-279 -279l281 -281l-157 -156l-281 281l-278 -279l-153 152l279 279z" />
    <glyph glyph-name="Yacute" unicode="&#xdd;" horiz-adv-x="1025" vert-adv-y="2457" 
d="M708 0h-369v578l-339 787h384l67 -202q39 -118 63 -220q40 151 62 218l67 204h382l-317 -787v-578zM797 1783l-173 -309h-205l89 309h289z" />
    <glyph glyph-name="Thorn" unicode="&#xde;" horiz-adv-x="1035" vert-adv-y="2457" 
d="M465 0h-369v1365h369v-191q183 -4 293 -51q129 -57 195 -189q49 -98 49 -225q0 -149 -64 -259q-85 -147 -266 -182q-61 -12 -149 -12q-17 0 -58 1v-257zM465 563q12 -1 17 -1q53 0 93 29q54 38 54 124q0 74 -42 120q-37 41 -96 41q-9 0 -26 -1v-312z" />
    <glyph glyph-name="eth" unicode="&#xf0;" horiz-adv-x="999" vert-adv-y="2457" 
d="M84 1354l92 144q156 -43 307 -136l235 129l72 -133l-171 -94q114 -100 187 -225q139 -238 139 -532q0 -254 -119 -389q-121 -138 -327 -138q-208 0 -324 132q-120 137 -120 364q0 166 70 290q114 200 356 210q-41 97 -95 163l-223 -124l-72 130l187 103q-21 13 -32 19
q-91 57 -162 87zM498 707q-37 0 -63 -45q-37 -64 -37 -186q0 -133 44 -196q23 -34 56 -34q37 0 63 45q37 64 37 182q0 137 -43 200q-24 34 -57 34z" />
    <glyph glyph-name="yacute" unicode="&#xfd;" horiz-adv-x="934" vert-adv-y="2457" 
d="M495 -401h-366l155 441l-284 916h356l69 -274q28 -113 43 -268q37 252 58 335l53 207h355zM365 1086l97 303h286l-180 -303h-203z" />
    <glyph glyph-name="thorn" unicode="&#xfe;" horiz-adv-x="1013" vert-adv-y="2457" 
d="M437 -427h-355v1921h355v-538q0 -52 -8 -135q35 66 67 96q62 59 152 59q138 0 221 -132q90 -144 90 -367q0 -245 -98 -388q-34 -51 -93 -81q-53 -28 -113 -28q-84 0 -149 55q-36 30 -77 95q8 -103 8 -159v-398zM508 684q-82 0 -82 -201q0 -118 31 -170q20 -34 49 -34
q33 0 56 41q30 53 30 167q0 113 -32 163q-22 34 -52 34z" />
    <glyph glyph-name="Amacron" unicode="&#x100;" horiz-adv-x="1090" vert-adv-y="2457" 
d="M1079 0h-381l-27 173h-249l-30 -173h-381l328 1365h451zM628 465l-24 159q-19 123 -46 415q-9 -72 -14 -108q-9 -78 -23 -171l-11 -80l-38 -215h156zM231 1502v191h655v-191h-655z" />
    <glyph glyph-name="amacron" unicode="&#x101;" horiz-adv-x="1017" vert-adv-y="2457" 
d="M936 0h-355l3 45q3 63 9 116q-36 -71 -68 -104q-73 -77 -179 -77q-143 0 -219 148q-72 139 -72 356q0 229 84 364q79 128 216 128q106 0 176 -84q24 -29 54 -87q-4 42 -8 109l-2 42h361v-956zM501 684q-49 0 -69 -59t-20 -179q0 -173 81 -173q84 0 84 218q0 87 -11 131
q-14 62 -65 62zM209 1120v198h642v-198h-642z" />
    <glyph glyph-name="Abreve" unicode="&#x102;" horiz-adv-x="1090" vert-adv-y="2457" 
d="M1079 0h-381l-27 173h-249l-30 -173h-381l328 1365h451zM628 465l-24 159q-19 123 -46 415q-9 -72 -14 -108q-9 -78 -23 -171l-11 -80l-38 -215h156zM231 1774h142q22 -52 48 -74q45 -35 138 -35t137 35q27 22 48 74h143q-11 -119 -81 -204q-82 -100 -249 -100
q-171 0 -260 120q-56 76 -66 184z" />
    <glyph glyph-name="abreve" unicode="&#x103;" horiz-adv-x="1017" vert-adv-y="2457" 
d="M936 0h-355l3 45q3 63 9 116q-36 -71 -68 -104q-73 -77 -179 -77q-143 0 -219 148q-72 139 -72 356q0 229 84 364q79 128 216 128q106 0 176 -84q24 -29 54 -87q-4 42 -8 109l-2 42h361v-956zM501 684q-49 0 -69 -59t-20 -179q0 -173 81 -173q84 0 84 218q0 87 -11 131
q-14 62 -65 62zM195 1390h142q21 -53 48 -75q46 -35 136 -35q84 0 126 35q28 25 48 75h142q-29 -305 -319 -305q-166 0 -256 120q-58 76 -67 185z" />
    <glyph glyph-name="Aogonek" unicode="&#x104;" horiz-adv-x="1090" vert-adv-y="2457" 
d="M1079 0q-72 -74 -72 -134q0 -70 77 -70q29 0 77 16l-18 -147q-56 -22 -113 -22q-98 0 -150 48q-50 46 -50 115q0 63 42 118q26 33 74 76h-248l-27 173h-249l-30 -173h-381l328 1365h451zM628 465l-24 159q-19 123 -46 415q-9 -72 -14 -108q-9 -78 -23 -171l-11 -80
l-38 -215h156z" />
    <glyph glyph-name="aogonek" unicode="&#x105;" horiz-adv-x="1017" vert-adv-y="2457" 
d="M936 0q-69 -63 -69 -128q0 -73 82 -73q28 0 69 12l-16 -143q-40 -18 -88 -18q-62 0 -116 24q-44 20 -70 60q-24 36 -24 79q0 97 107 187h-230l3 45q3 63 9 116q-36 -71 -68 -104q-73 -77 -179 -77q-143 0 -219 148q-72 139 -72 356q0 229 84 364q79 128 216 128
q106 0 176 -84q24 -29 54 -87q-4 42 -8 109l-2 42h361v-956zM501 684q-49 0 -69 -59t-20 -179q0 -173 81 -173q84 0 84 218q0 87 -11 131q-14 62 -65 62z" />
    <glyph glyph-name="Cacute" unicode="&#x106;" horiz-adv-x="912" vert-adv-y="2457" 
d="M863 420l-21 -395q-117 -50 -221 -50q-257 0 -417 207q-143 184 -143 495q0 339 179 532q167 181 425 181q95 0 182 -34v-390q-31 31 -54 47q-51 36 -115 36q-116 0 -177 -97q-63 -100 -63 -269q0 -153 54 -247q62 -105 179 -105q74 0 140 46q20 14 52 43zM864 1783
l-173 -309h-205l89 309h289z" />
    <glyph glyph-name="cacute" unicode="&#x107;" horiz-adv-x="620" vert-adv-y="2457" 
d="M579 312v-327q-63 -6 -96 -6q-183 0 -293 124q-62 70 -98 171q-37 104 -37 209q0 152 74 278q72 124 202 180q83 36 177 36q22 0 71 -4v-311q-157 -11 -157 -172q0 -66 35 -119q39 -60 98 -60q12 0 24 1zM284 1086l97 303h286l-180 -303h-203z" />
    <glyph glyph-name="Ccircumflex" unicode="&#x108;" horiz-adv-x="912" vert-adv-y="2457" 
d="M863 420l-21 -395q-117 -50 -221 -50q-257 0 -417 207q-143 184 -143 495q0 339 179 532q167 181 425 181q95 0 182 -34v-390q-31 31 -54 47q-51 36 -115 36q-116 0 -177 -97q-63 -100 -63 -269q0 -153 54 -247q62 -105 179 -105q74 0 140 46q20 14 52 43zM895 1474h-278
l-71 123l-77 -123h-234l179 283h312z" />
    <glyph glyph-name="Cdotaccent" unicode="&#x10a;" horiz-adv-x="912" vert-adv-y="2457" 
d="M863 420l-21 -395q-117 -50 -221 -50q-257 0 -417 207q-143 184 -143 495q0 339 179 532q167 181 425 181q95 0 182 -34v-390q-31 31 -54 47q-51 36 -115 36q-116 0 -177 -97q-63 -100 -63 -269q0 -153 54 -247q62 -105 179 -105q74 0 140 46q20 14 52 43zM600 1785
q63 0 108 -43q47 -46 47 -112q0 -62 -45 -109q-46 -46 -110 -46q-65 0 -110 46q-45 45 -45 109q0 65 44 109q46 46 111 46z" />
    <glyph glyph-name="cdotaccent" unicode="&#x10b;" horiz-adv-x="620" vert-adv-y="2457" 
d="M579 312v-327q-63 -6 -96 -6q-183 0 -293 124q-62 70 -98 171q-37 104 -37 209q0 152 74 278q72 124 202 180q83 36 177 36q22 0 71 -4v-311q-157 -11 -157 -172q0 -66 35 -119q39 -60 98 -60q12 0 24 1zM405 1396q64 0 110 -45q47 -46 47 -113q0 -61 -45 -107
q-44 -46 -109 -46q-66 0 -112 46q-45 47 -45 111t45 108q46 46 109 46z" />
    <glyph glyph-name="Ccaron" unicode="&#x10c;" horiz-adv-x="912" vert-adv-y="2457" 
d="M863 420l-21 -395q-117 -50 -221 -50q-257 0 -417 207q-143 184 -143 495q0 339 179 532q167 181 425 181q95 0 182 -34v-390q-31 31 -54 47q-51 36 -115 36q-116 0 -177 -97q-63 -100 -63 -269q0 -153 54 -247q62 -105 179 -105q74 0 140 46q20 14 52 43zM262 1757h278
l70 -123l77 123h235l-179 -283h-313z" />
    <glyph glyph-name="ccaron" unicode="&#x10d;" horiz-adv-x="620" vert-adv-y="2457" 
d="M579 312v-327q-63 -6 -96 -6q-183 0 -293 124q-62 70 -98 171q-37 104 -37 209q0 152 74 278q72 124 202 180q83 36 177 36q22 0 71 -4v-311q-157 -11 -157 -172q0 -66 35 -119q39 -60 98 -60q12 0 24 1zM94 1369h260l72 -138l80 138h211l-157 -284h-320z" />
    <glyph glyph-name="Dcaron" unicode="&#x10e;" horiz-adv-x="1100" vert-adv-y="2457" 
d="M96 0v1365h319q298 0 457 -180q168 -190 168 -503q0 -340 -169 -525q-92 -100 -228 -136q-81 -21 -202 -21h-345zM465 330q198 9 198 341q0 223 -94 318q-34 34 -104 35v-694zM146 1757h278l70 -123l77 123h235l-179 -283h-313z" />
    <glyph glyph-name="dcaron" unicode="&#x10f;" horiz-adv-x="1374" vert-adv-y="2457" 
d="M574 0q0 19 7 129q-38 -60 -66 -88q-61 -61 -152 -61q-85 0 -158 55q-150 111 -150 434q0 237 78 373q39 69 107 105q55 29 119 29q94 0 157 -58q31 -28 71 -100q-3 40 -4 106l-2 46v524h355v-1494h-362zM513 681q-91 0 -91 -199q0 -197 88 -197q82 0 82 203
q0 193 -79 193zM1361 1494l-167 -328h-190l117 328h240z" />
    <glyph glyph-name="Dcroat" unicode="&#x110;" horiz-adv-x="1100" vert-adv-y="2457" 
d="M96 0v594h-82v212h82v559h319q297 0 457 -180q168 -190 168 -503q0 -340 -169 -525q-92 -100 -228 -136q-82 -21 -202 -21h-345zM465 330q198 9 198 342q0 187 -68 287q-45 66 -118 66h-12v-219h109v-212h-109v-264z" />
    <glyph glyph-name="dcroat" unicode="&#x111;" horiz-adv-x="1017" vert-adv-y="2457" 
d="M936 0h-362q0 19 7 129q-38 -61 -66 -88q-63 -61 -152 -61q-85 0 -158 55q-150 111 -150 434q0 237 78 373q40 69 107 105q55 29 119 29q94 0 157 -58q31 -28 71 -100q-3 40 -4 106l-2 46v129h-191v198h191v197h355v-197h95v-198h-95v-1099zM513 681q-91 0 -91 -199
q0 -197 88 -197q82 0 82 203q0 193 -79 193z" />
    <glyph glyph-name="Emacron" unicode="&#x112;" horiz-adv-x="842" vert-adv-y="2457" 
d="M96 0v1365h685v-321h-316v-199h284v-309h-284v-208h316v-328h-685zM110 1502v191h655v-191h-655z" />
    <glyph glyph-name="emacron" unicode="&#x113;" horiz-adv-x="985" vert-adv-y="2457" 
d="M571 324l347 -7q-25 -112 -80 -183q-120 -155 -346 -155q-199 0 -317 123q-120 126 -120 359q0 208 106 346q129 168 341 168q143 0 252 -82q177 -134 177 -427q0 -23 -1 -63h-521q8 -147 83 -147q60 0 79 68zM579 594q-2 42 -14 69q-22 52 -69 52q-77 0 -82 -121h165z
M165 1120v198h642v-198h-642z" />
    <glyph glyph-name="Ebreve" unicode="&#x114;" horiz-adv-x="842" vert-adv-y="2457" 
d="M96 0v1365h685v-321h-316v-199h284v-309h-284v-208h316v-328h-685zM112 1774h142q22 -52 48 -74q45 -35 138 -35t137 35q27 22 48 74h143q-11 -119 -81 -204q-82 -100 -249 -100q-171 0 -260 120q-56 76 -66 184z" />
    <glyph glyph-name="ebreve" unicode="&#x115;" horiz-adv-x="985" vert-adv-y="2457" 
d="M571 324l347 -7q-25 -112 -80 -183q-120 -155 -346 -155q-199 0 -317 123q-120 126 -120 359q0 208 106 346q129 168 341 168q143 0 252 -82q177 -134 177 -427q0 -23 -1 -63h-521q8 -147 83 -147q60 0 79 68zM579 594q-2 42 -14 69q-22 52 -69 52q-77 0 -82 -121h165z
M172 1390h142q21 -53 48 -75q46 -35 136 -35q84 0 126 35q28 25 48 75h142q-29 -305 -319 -305q-166 0 -256 120q-58 76 -67 185z" />
    <glyph glyph-name="Edotaccent" unicode="&#x116;" horiz-adv-x="842" vert-adv-y="2457" 
d="M96 0v1365h685v-321h-316v-199h284v-309h-284v-208h316v-328h-685zM439 1785q63 0 108 -43q47 -46 47 -112q0 -62 -45 -109q-46 -46 -110 -46q-65 0 -110 46q-45 45 -45 109q0 65 44 109q46 46 111 46z" />
    <glyph glyph-name="edotaccent" unicode="&#x117;" horiz-adv-x="985" vert-adv-y="2457" 
d="M571 324l347 -7q-25 -112 -80 -183q-120 -155 -346 -155q-199 0 -317 123q-120 126 -120 359q0 208 106 346q129 168 341 168q143 0 252 -82q177 -134 177 -427q0 -23 -1 -63h-521q8 -147 83 -147q60 0 79 68zM579 594q-2 42 -14 69q-22 52 -69 52q-77 0 -82 -121h165z
M492 1396q64 0 110 -45q47 -46 47 -113q0 -61 -45 -107q-44 -46 -109 -46q-66 0 -112 46q-45 47 -45 111t45 108q46 46 109 46z" />
    <glyph glyph-name="Eogonek" unicode="&#x118;" horiz-adv-x="842" vert-adv-y="2457" 
d="M96 0v1365h685v-321h-316v-199h284v-309h-284v-208h316v-328q-71 -75 -71 -134q0 -70 76 -70q29 0 77 16l-18 -147q-56 -22 -112 -22q-98 0 -150 48q-50 46 -50 115q0 62 42 118q27 34 74 76h-553z" />
    <glyph glyph-name="eogonek" unicode="&#x119;" horiz-adv-x="985" vert-adv-y="2457" 
d="M571 324l347 -7q-21 -96 -59 -156q-44 -70 -117 -118q-58 -38 -81 -65q-39 -45 -39 -107q0 -72 82 -72q28 0 69 12l-16 -143q-40 -18 -88 -18q-62 0 -116 24q-44 20 -70 60q-24 35 -24 77q0 47 25 95q17 32 70 79q-53 -6 -76 -6q-161 0 -267 88q-156 131 -156 393
q0 210 106 347q128 168 341 168q143 0 252 -82q177 -134 177 -427q0 -23 -1 -63h-521q8 -147 83 -147q61 0 79 68zM579 594q-2 42 -14 69q-22 52 -69 52q-77 0 -82 -121h165z" />
    <glyph glyph-name="Ecaron" unicode="&#x11a;" horiz-adv-x="842" vert-adv-y="2457" 
d="M96 0v1365h685v-321h-316v-199h284v-309h-284v-208h316v-328h-685zM111 1757h278l70 -123l77 123h235l-179 -283h-313z" />
    <glyph glyph-name="ecaron" unicode="&#x11b;" horiz-adv-x="985" vert-adv-y="2457" 
d="M571 324l347 -7q-25 -112 -80 -183q-120 -155 -346 -155q-199 0 -317 123q-120 126 -120 359q0 208 106 346q129 168 341 168q143 0 252 -82q177 -134 177 -427q0 -23 -1 -63h-521q8 -147 83 -147q60 0 79 68zM579 594q-2 42 -14 69q-22 52 -69 52q-77 0 -82 -121h165z
M182 1369h260l72 -138l80 138h211l-157 -284h-320z" />
    <glyph glyph-name="Gcircumflex" unicode="&#x11c;" horiz-adv-x="1147" vert-adv-y="2457" 
d="M570 789h515v-56q0 -225 -32 -360q-53 -222 -199 -320q-115 -78 -266 -78q-163 0 -290 90q-237 169 -237 611q0 303 123 497q137 217 403 217q323 0 468 -338l-357 -131q-8 64 -38 103q-28 37 -70 37q-69 0 -108 -83q-44 -95 -44 -335q0 -201 41 -275q35 -64 99 -64
q62 0 98 62q29 50 30 136h-136v287zM917 1474h-278l-71 123l-77 -123h-234l179 283h312z" />
    <glyph glyph-name="gcircumflex" unicode="&#x11d;" horiz-adv-x="1009" vert-adv-y="2457" 
d="M927 956v-984q0 -135 -38 -212q-56 -113 -192 -168q-88 -36 -201 -36q-249 0 -354 140q-56 76 -75 206h363q5 -78 74 -78q55 0 72 45q11 30 11 91v151q-94 -125 -223 -125q-88 0 -164 66q-145 126 -145 426q0 220 86 359q38 63 99 103q55 36 121 36q85 0 148 -62
q28 -28 67 -83l-7 125h358zM507 688q-85 0 -85 -202q0 -131 36 -181q20 -27 46 -27q79 0 79 202q0 208 -76 208zM830 1085h-260l-72 138l-80 -138h-211l157 284h320z" />
    <glyph glyph-name="Gbreve" unicode="&#x11e;" horiz-adv-x="1147" vert-adv-y="2457" 
d="M570 789h515v-56q0 -225 -32 -360q-53 -222 -199 -320q-115 -78 -266 -78q-163 0 -290 90q-237 169 -237 611q0 303 123 497q137 217 403 217q323 0 468 -338l-357 -131q-8 64 -38 103q-28 37 -70 37q-69 0 -108 -83q-44 -95 -44 -335q0 -201 41 -275q35 -64 99 -64
q62 0 98 62q29 50 30 136h-136v287zM252 1774h142q22 -52 48 -74q45 -35 138 -35t137 35q27 22 48 74h143q-11 -119 -81 -204q-82 -100 -249 -100q-171 0 -260 120q-56 76 -66 184z" />
    <glyph glyph-name="gbreve" unicode="&#x11f;" horiz-adv-x="1009" vert-adv-y="2457" 
d="M927 956v-984q0 -135 -38 -212q-56 -113 -192 -168q-88 -36 -201 -36q-249 0 -354 140q-56 76 -75 206h363q5 -78 74 -78q55 0 72 45q11 30 11 91v151q-94 -125 -223 -125q-88 0 -164 66q-145 126 -145 426q0 220 86 359q38 63 99 103q55 36 121 36q85 0 148 -62
q28 -28 67 -83l-7 125h358zM507 688q-85 0 -85 -202q0 -131 36 -181q20 -27 46 -27q79 0 79 202q0 208 -76 208zM191 1390h142q21 -53 48 -75q46 -35 136 -35q84 0 126 35q28 25 48 75h142q-29 -305 -319 -305q-166 0 -256 120q-58 76 -67 185z" />
    <glyph glyph-name="Gdotaccent" unicode="&#x120;" horiz-adv-x="1147" vert-adv-y="2457" 
d="M570 789h515v-56q0 -225 -32 -360q-53 -222 -199 -320q-115 -78 -266 -78q-163 0 -290 90q-237 169 -237 611q0 303 123 497q137 217 403 217q323 0 468 -338l-357 -131q-8 64 -38 103q-28 37 -70 37q-69 0 -108 -83q-44 -95 -44 -335q0 -201 41 -275q35 -64 99 -64
q62 0 98 62q29 50 30 136h-136v287zM588 1785q63 0 108 -43q47 -46 47 -112q0 -62 -45 -109q-46 -46 -110 -46q-65 0 -110 46q-45 45 -45 109q0 65 44 109q46 46 111 46z" />
    <glyph glyph-name="gdotaccent" unicode="&#x121;" horiz-adv-x="1009" vert-adv-y="2457" 
d="M927 956v-984q0 -135 -38 -212q-56 -113 -192 -168q-88 -36 -201 -36q-249 0 -354 140q-56 76 -75 206h363q5 -78 74 -78q55 0 72 45q11 30 11 91v151q-94 -125 -223 -125q-88 0 -164 66q-145 126 -145 426q0 220 86 359q38 63 99 103q55 36 121 36q85 0 148 -62
q28 -28 67 -83l-7 125h358zM507 688q-85 0 -85 -202q0 -131 36 -181q20 -27 46 -27q79 0 79 202q0 208 -76 208zM511 1396q64 0 110 -45q47 -46 47 -113q0 -61 -45 -107q-44 -46 -109 -46q-66 0 -112 46q-45 47 -45 111t45 108q46 46 109 46z" />
    <glyph glyph-name="Gcommaaccent" unicode="&#x122;" horiz-adv-x="1147" vert-adv-y="2457" 
d="M570 789h515v-56q0 -225 -32 -360q-53 -222 -199 -320q-115 -78 -266 -78q-163 0 -290 90q-237 169 -237 611q0 303 123 497q137 217 403 217q323 0 468 -338l-357 -131q-8 64 -38 103q-28 37 -70 37q-69 0 -108 -83q-44 -95 -44 -335q0 -201 41 -275q35 -64 99 -64
q62 0 98 62q29 50 30 136h-136v287zM725 -110l-166 -328h-204l117 328h253z" />
    <glyph glyph-name="gcommaaccent" unicode="&#x123;" horiz-adv-x="1009" vert-adv-y="2457" 
d="M927 956v-984q0 -135 -38 -212q-56 -113 -192 -168q-88 -36 -201 -36q-249 0 -354 140q-56 76 -75 206h363q5 -78 74 -78q55 0 72 45q11 30 11 91v151q-94 -125 -223 -125q-88 0 -164 66q-145 126 -145 426q0 220 86 359q38 63 99 103q55 36 121 36q85 0 148 -62
q28 -28 67 -83l-7 125h358zM507 688q-85 0 -85 -202q0 -131 36 -181q20 -27 46 -27q79 0 79 202q0 208 -76 208zM381 1086l167 328h190l-117 -328h-240z" />
    <glyph glyph-name="Hcircumflex" unicode="&#x124;" horiz-adv-x="1105" vert-adv-y="2457" 
d="M1009 0h-369v549h-175v-549h-369v1365h369v-483h175v483h369v-1365zM883 1474h-278l-71 123l-77 -123h-234l179 283h312z" />
    <glyph glyph-name="Hbar" unicode="&#x126;" horiz-adv-x="1105" vert-adv-y="2457" 
d="M5 1002v169h90v194h369v-194h176v194h369v-194h90v-169h-90v-1002h-369v549h-176v-549h-369v1002h-90zM464 1002v-120h176v120h-176z" />
    <glyph glyph-name="hbar" unicode="&#x127;" horiz-adv-x="1005" vert-adv-y="2457" 
d="M-14 1099v198h96v197h355v-197h191v-198h-191v-139l-3 -73q-2 -67 -5 -113q86 203 250 203q82 0 148 -55q96 -79 96 -270v-652h-355v506q0 67 -13 91q-13 26 -44 26q-74 0 -74 -141v-482h-355v1099h-96z" />
    <glyph glyph-name="Itilde" unicode="&#x128;" horiz-adv-x="560" vert-adv-y="2457" 
d="M465 0h-369v1365h369v-1365zM445 1752h183v-29q0 -100 -57 -172t-158 -72q-63 0 -154 41q-59 27 -86 27q-51 0 -54 -72h-187q0 75 11 114q20 70 76 116q49 40 120 40q51 0 109 -20l81 -34q32 -14 59 -14q52 0 57 75z" />
    <glyph glyph-name="itilde" unicode="&#x129;" horiz-adv-x="519" vert-adv-y="2457" 
d="M437 0h-355v956h355v-956zM424 1363h183v-29q0 -101 -57 -173t-158 -72q-63 0 -154 42q-59 27 -86 27q-51 0 -54 -73h-187q0 75 11 115q20 69 76 115q49 41 120 41q51 0 109 -21l81 -34q32 -14 59 -14q52 0 57 76z" />
    <glyph glyph-name="Imacron" unicode="&#x12a;" horiz-adv-x="560" vert-adv-y="2457" 
d="M464 0h-369v1365h369v-1365zM-7 1502v191h573v-191h-573z" />
    <glyph glyph-name="imacron" unicode="&#x12b;" horiz-adv-x="519" vert-adv-y="2457" 
d="M437 0h-355v956h355v-956zM-27 1120v198h573v-198h-573z" />
    <glyph glyph-name="ibreve" unicode="&#x12d;" horiz-adv-x="519" vert-adv-y="2457" 
d="M437 0h-355v956h355v-956zM-41 1390h142q22 -53 44 -75q37 -38 113 -38q79 0 116 38q23 22 44 75h142q-14 -137 -67 -209q-71 -96 -233 -96q-272 0 -301 305z" />
    <glyph glyph-name="Iogonek" unicode="&#x12e;" horiz-adv-x="560" vert-adv-y="2457" 
d="M96 0v1365h369v-1365q-115 -33 -115 -132q0 -72 77 -72q29 0 78 16l-19 -147q-56 -22 -113 -22q-98 0 -150 48q-50 46 -50 115q0 109 128 194h-205z" />
    <glyph glyph-name="iogonek" unicode="&#x12f;" horiz-adv-x="519" vert-adv-y="2457" 
d="M437 956v-956q-53 -11 -81 -44q-30 -35 -30 -81q0 -76 83 -76q29 0 69 12l-16 -143q-40 -18 -88 -18q-63 0 -116 24q-44 20 -71 60q-24 35 -24 79q0 58 40 116q29 41 82 71h-203v956h355zM259 1461q85 0 146 -59q62 -60 62 -150q0 -82 -59 -143q-61 -62 -148 -62
q-85 0 -146 60q-61 61 -61 148q0 86 60 145q62 61 146 61z" />
    <glyph glyph-name="Idotaccent" unicode="&#x130;" horiz-adv-x="560" vert-adv-y="2457" 
d="M465 0h-369v1365h369v-1365zM280 1785q63 0 108 -43q47 -46 47 -112q0 -62 -45 -109q-46 -46 -110 -46q-65 0 -110 46q-45 45 -45 109q0 65 44 109q46 46 111 46z" />
    <glyph glyph-name="IJ" unicode="&#x132;" horiz-adv-x="1278" vert-adv-y="2457" 
d="M465 0h-369v1365h369v-1365zM553 21v381q63 -82 148 -82q113 0 113 170v875h369v-948q0 -137 -26 -208q-84 -234 -363 -234q-112 0 -241 46z" />
    <glyph glyph-name="ij" unicode="&#x133;" horiz-adv-x="1031" vert-adv-y="2457" 
d="M437 0h-355v956h355v-956zM259 1461q85 0 146 -59q62 -60 62 -150q0 -82 -59 -143q-61 -62 -148 -62q-85 0 -146 60q-61 61 -61 148q0 86 60 145q62 61 146 61zM949 -419h-354l-2 1375h356v-1375zM770 1461q85 0 146 -59q62 -60 62 -150q0 -83 -59 -143q-61 -62 -148 -62
q-85 0 -146 60q-61 61 -61 148q0 86 60 145q62 61 146 61z" />
    <glyph glyph-name="Kcommaaccent" unicode="&#x136;" horiz-adv-x="1108" vert-adv-y="2457" 
d="M1098 0h-398l-245 629l10 -629h-369v1365h369l-10 -585l217 585h390l-295 -659zM693 -110l-166 -328h-204l117 328h253z" />
    <glyph glyph-name="kcommaaccent" unicode="&#x137;" horiz-adv-x="1013" vert-adv-y="2457" 
d="M606 0l-137 371q-10 26 -32 109v-480h-355v1494h355v-969q22 74 53 149l116 282h383l-235 -439l259 -517h-407zM638 -110l-167 -328h-190l117 328h240z" />
    <glyph glyph-name="kgreenlandic" unicode="&#x138;" horiz-adv-x="1013" vert-adv-y="2457" 
d="M606 0l-137 371q-10 26 -32 109v-480h-355v956h355v-431q22 74 53 149l116 282h383l-235 -439l259 -517h-407z" />
    <glyph glyph-name="Lacute" unicode="&#x139;" horiz-adv-x="755" vert-adv-y="2457" 
d="M742 0h-646v1365h369v-1037h277v-328zM548 1783l-173 -309h-205l89 309h289z" />
    <glyph glyph-name="lacute" unicode="&#x13a;" horiz-adv-x="519" vert-adv-y="2457" 
d="M437 0h-355v1494h355v-1494zM132 1515l97 303h286l-180 -303h-203z" />
    <glyph glyph-name="Lcommaaccent" unicode="&#x13b;" horiz-adv-x="755" vert-adv-y="2457" 
d="M742 0h-646v1365h369v-1037h277v-328zM557 -110l-166 -328h-204l117 328h253z" />
    <glyph glyph-name="lcommaaccent" unicode="&#x13c;" horiz-adv-x="519" vert-adv-y="2457" 
d="M437 0h-355v1494h355v-1494zM391 -110l-167 -328h-190l117 328h240z" />
    <glyph glyph-name="Lcaron" unicode="&#x13d;" horiz-adv-x="917" vert-adv-y="2457" 
d="M742 0h-646v1365h369v-1037h277v-328zM917 1365l-166 -328h-204l117 328h253z" />
    <glyph glyph-name="lcaron" unicode="&#x13e;" horiz-adv-x="876" vert-adv-y="2457" 
d="M437 0h-355v1494h355v-1494zM862 1494l-167 -328h-190l117 328h240z" />
    <glyph glyph-name="Ldot" unicode="&#x13f;" horiz-adv-x="755" vert-adv-y="2457" 
d="M742 0h-646v1365h369v-1037h277v-328zM656 859q62 0 108 -47q46 -49 46 -122q0 -66 -44 -114q-45 -48 -108 -48q-64 0 -108 50q-44 49 -44 117t43 115q44 49 107 49z" />
    <glyph glyph-name="ldot" unicode="&#x140;" horiz-adv-x="872" vert-adv-y="2457" 
d="M437 0h-355v1494h355v-1494zM697 859q68 0 117 -47q50 -49 50 -122q0 -66 -48 -114q-49 -48 -117 -48q-70 0 -118 50q-48 49 -48 117q0 69 47 115q49 49 117 49z" />
    <glyph glyph-name="Lslash" unicode="&#x141;" horiz-adv-x="769" vert-adv-y="2457" 
d="M109 445l-109 -88v248l109 85v675h369v-477l181 147v-253l-181 -143v-311h277v-328h-646v445z" />
    <glyph glyph-name="lslash" unicode="&#x142;" horiz-adv-x="601" vert-adv-y="2457" 
d="M123 534l-96 -75v231l96 74v730h355v-566l95 77v-231l-95 -76v-698h-355v534z" />
    <glyph glyph-name="Nacute" unicode="&#x143;" horiz-adv-x="1152" vert-adv-y="2457" 
d="M96 0v1365h352l184 -479q31 -81 115 -344q-42 346 -42 516v307h352v-1365h-352l-186 502q-58 158 -94 284q23 -280 23 -438v-348h-352zM835 1783l-173 -309h-205l89 309h289z" />
    <glyph glyph-name="nacute" unicode="&#x144;" horiz-adv-x="1005" vert-adv-y="2457" 
d="M923 0h-355v506q0 67 -13 91q-13 26 -44 26q-74 0 -74 -141v-482h-355v956h355q-2 -65 -8 -182q86 203 251 203q82 0 147 -55q96 -79 96 -270v-652zM381 1086l97 303h286l-180 -303h-203z" />
    <glyph glyph-name="Ncommaaccent" unicode="&#x145;" horiz-adv-x="1152" vert-adv-y="2457" 
d="M96 0v1365h352l184 -479q31 -81 115 -344q-42 346 -42 516v307h352v-1365h-352l-186 502q-58 158 -94 284q23 -280 23 -438v-348h-352zM715 -110l-166 -328h-204l117 328h253z" />
    <glyph glyph-name="ncommaaccent" unicode="&#x146;" horiz-adv-x="1005" vert-adv-y="2457" 
d="M923 0h-355v506q0 67 -13 91q-13 26 -44 26q-74 0 -74 -141v-482h-355v956h355q-2 -65 -8 -182q86 203 251 203q82 0 147 -55q96 -79 96 -270v-652zM639 -110l-167 -328h-190l117 328h240z" />
    <glyph glyph-name="Ncaron" unicode="&#x147;" horiz-adv-x="1152" vert-adv-y="2457" 
d="M96 0v1365h352l184 -479q31 -81 115 -344q-42 346 -42 516v307h352v-1365h-352l-186 502q-58 158 -94 284q23 -280 23 -438v-348h-352zM247 1757h278l70 -123l77 123h235l-179 -283h-313z" />
    <glyph glyph-name="ncaron" unicode="&#x148;" horiz-adv-x="1005" vert-adv-y="2457" 
d="M923 0h-355v506q0 67 -13 91q-13 26 -44 26q-74 0 -74 -141v-482h-355v956h355q-2 -65 -8 -182q86 203 251 203q82 0 147 -55q96 -79 96 -270v-652zM191 1369h260l72 -138l80 138h211l-157 -284h-320z" />
    <glyph glyph-name="napostrophe" unicode="&#x149;" horiz-adv-x="1479" vert-adv-y="2457" 
d="M611 1365l-238 -656h-291l167 656h362zM1398 0h-355v506q0 67 -13 91q-13 26 -44 26q-74 0 -74 -141v-482h-355v956h355q-2 -65 -8 -182q86 203 251 203q82 0 147 -55q96 -79 96 -270v-652z" />
    <glyph glyph-name="Eng" unicode="&#x14a;" horiz-adv-x="1105" vert-adv-y="2457" 
d="M96 1365h369q-3 -68 -12 -192q96 217 280 217q93 0 168 -61q108 -89 108 -302v-881q0 -192 -65 -288q-90 -131 -244 -131q-65 0 -151 21v279q14 -2 23 -2q44 0 58 44q10 29 10 97v712q0 96 -17 131q-17 37 -57 37q-39 0 -68 -35q-33 -40 -33 -167v-844h-369v1365z" />
    <glyph glyph-name="eng" unicode="&#x14b;" horiz-adv-x="1005" vert-adv-y="2457" 
d="M82 956h355q-2 -65 -8 -182q86 203 251 203q82 0 147 -55q96 -79 96 -270v-550q0 -172 -68 -259q-92 -116 -250 -116q-48 0 -109 11v255q10 -1 18 -1q29 0 43 25q11 18 11 74v415q0 67 -13 91q-13 26 -44 26q-74 0 -74 -141v-482h-355v956z" />
    <glyph glyph-name="Omacron" unicode="&#x14c;" horiz-adv-x="1161" vert-adv-y="2457" 
d="M584 1390q165 0 291 -104q224 -185 224 -608q0 -331 -156 -527q-66 -83 -159 -130q-93 -46 -196 -46q-151 0 -282 95q-245 179 -245 623q0 337 161 523q150 174 362 174zM584 1046q-57 0 -93 -74q-48 -96 -48 -289q0 -212 51 -303q33 -60 84 -60q50 0 87 63q51 86 51 292
q0 371 -132 371zM252 1502v191h655v-191h-655z" />
    <glyph glyph-name="omacron" unicode="&#x14d;" horiz-adv-x="998" vert-adv-y="2457" 
d="M496 976q232 0 351 -165q97 -133 97 -348q0 -210 -114 -344q-120 -140 -336 -140q-203 0 -318 132q-121 139 -121 363q0 217 116 358q120 144 325 144zM499 708q-37 0 -63 -45q-37 -64 -37 -186q0 -132 44 -196q24 -34 57 -34q37 0 63 45q37 64 37 182q0 137 -44 200
q-23 34 -57 34zM179 1120v198h642v-198h-642z" />
    <glyph glyph-name="Ohungarumlaut" unicode="&#x150;" horiz-adv-x="1161" vert-adv-y="2457" 
d="M584 1390q165 0 291 -104q224 -185 224 -608q0 -331 -156 -527q-66 -83 -159 -130q-93 -46 -196 -46q-151 0 -282 95q-245 179 -245 623q0 337 161 523q150 174 362 174zM584 1046q-57 0 -93 -74q-48 -96 -48 -289q0 -212 51 -303q33 -60 84 -60q50 0 87 63q51 86 51 292
q0 371 -132 371zM674 1783l-172 -309h-185l89 309h268zM1016 1783l-173 -309h-185l89 309h269z" />
    <glyph glyph-name="ohungarumlaut" unicode="&#x151;" horiz-adv-x="998" vert-adv-y="2457" 
d="M496 976q232 0 351 -165q97 -133 97 -348q0 -210 -114 -344q-120 -140 -336 -140q-203 0 -318 132q-121 139 -121 363q0 217 116 358q120 144 325 144zM499 708q-37 0 -63 -45q-37 -64 -37 -186q0 -132 44 -196q24 -34 57 -34q37 0 63 45q37 64 37 182q0 137 -44 200
q-23 34 -57 34zM241 1086l97 303h252l-166 -303h-183zM582 1086l97 303h252l-166 -303h-183z" />
    <glyph glyph-name="Racute" unicode="&#x154;" horiz-adv-x="1093" vert-adv-y="2457" 
d="M1067 0h-399l-125 335l-27 75l-56 158q5 -152 5 -182v-386h-369v1365h378q250 0 373 -98q75 -60 116 -154t41 -203q0 -248 -211 -342zM465 734q15 -1 25 -1q66 0 105 48q43 52 43 124q0 114 -93 144q-28 9 -80 9v-324zM737 1783l-173 -309h-205l89 309h289z" />
    <glyph glyph-name="racute" unicode="&#x155;" horiz-adv-x="705" vert-adv-y="2457" 
d="M437 0h-355v956h355l-19 -186q80 204 266 209v-398q-58 32 -99 32q-69 0 -111 -55q-29 -38 -34 -84q-3 -27 -3 -64v-410zM244 1086l97 303h286l-180 -303h-203z" />
    <glyph glyph-name="Rcommaaccent" unicode="&#x156;" horiz-adv-x="1093" vert-adv-y="2457" 
d="M1067 0h-399l-125 335l-27 75l-56 158q5 -152 5 -182v-386h-369v1365h378q250 0 373 -98q75 -60 116 -154t41 -203q0 -248 -211 -342zM465 734q15 -1 25 -1q66 0 105 48q43 52 43 124q0 114 -93 144q-28 9 -80 9v-324zM685 -110l-166 -328h-204l117 328h253z" />
    <glyph glyph-name="rcommaaccent" unicode="&#x157;" horiz-adv-x="705" vert-adv-y="2457" 
d="M437 0h-355v956h355l-19 -186q80 204 266 209v-398q-58 32 -99 32q-69 0 -111 -55q-29 -38 -34 -84q-3 -27 -3 -64v-410zM401 -110l-167 -328h-190l117 328h240z" />
    <glyph glyph-name="Rcaron" unicode="&#x158;" horiz-adv-x="1093" vert-adv-y="2457" 
d="M1067 0h-399l-125 335l-27 75l-56 158q5 -152 5 -182v-386h-369v1365h378q250 0 373 -98q75 -60 116 -154t41 -203q0 -248 -211 -342zM465 734q15 -1 25 -1q66 0 105 48q43 52 43 124q0 114 -93 144q-28 9 -80 9v-324zM162 1757h278l70 -123l77 123h235l-179 -283h-313z
" />
    <glyph glyph-name="rcaron" unicode="&#x159;" horiz-adv-x="705" vert-adv-y="2457" 
d="M437 0h-355v956h355l-19 -186q80 204 266 209v-398q-58 32 -99 32q-69 0 -111 -55q-29 -38 -34 -84q-3 -27 -3 -64v-410zM61 1369h260l72 -138l80 138h211l-157 -284h-320z" />
    <glyph glyph-name="Sacute" unicode="&#x15a;" horiz-adv-x="827" vert-adv-y="2457" 
d="M66 34v428q109 -149 235 -149q48 0 80 27q28 24 28 62q0 47 -45 89q-10 9 -80 64q-86 67 -133 126q-90 114 -90 261q0 129 68 246q118 202 347 202q131 0 265 -70v-418q-34 54 -77 90q-72 61 -139 61q-52 0 -81 -37q-17 -21 -17 -45q0 -42 51 -89q11 -11 83 -63
q73 -52 126 -114q92 -105 92 -266q0 -204 -124 -334t-310 -130q-137 0 -279 59zM720 1783l-173 -309h-205l89 309h289z" />
    <glyph glyph-name="sacute" unicode="&#x15b;" horiz-adv-x="808" vert-adv-y="2457" 
d="M48 79l129 265q95 -99 179 -99q39 0 58 23q10 12 10 26q0 44 -92 76q-98 34 -156 80q-95 76 -95 200q0 142 110 231q117 95 282 95q135 0 284 -77l-121 -260q-88 84 -145 84q-25 0 -41 -14q-15 -13 -15 -31q0 -49 106 -91q113 -44 154 -83q77 -71 77 -188
q0 -136 -99 -234q-103 -102 -283 -102q-126 0 -247 52q-35 16 -95 47zM337 1086l97 303h286l-180 -303h-203z" />
    <glyph glyph-name="Scircumflex" unicode="&#x15c;" horiz-adv-x="827" vert-adv-y="2457" 
d="M66 34v428q109 -149 235 -149q48 0 80 27q28 24 28 62q0 47 -45 89q-10 9 -80 64q-86 67 -133 126q-90 114 -90 261q0 129 68 246q118 202 347 202q131 0 265 -70v-418q-34 54 -77 90q-72 61 -139 61q-52 0 -81 -37q-17 -21 -17 -45q0 -42 51 -89q11 -11 83 -63
q73 -52 126 -114q92 -105 92 -266q0 -204 -124 -334t-310 -130q-137 0 -279 59zM771 1474h-278l-71 123l-77 -123h-234l179 283h312z" />
    <glyph glyph-name="scircumflex" unicode="&#x15d;" horiz-adv-x="808" vert-adv-y="2457" 
d="M48 79l129 265q95 -99 179 -99q39 0 58 23q10 12 10 26q0 44 -92 76q-98 34 -156 80q-95 76 -95 200q0 142 110 231q117 95 282 95q135 0 284 -77l-121 -260q-88 84 -145 84q-25 0 -41 -14q-15 -13 -15 -31q0 -49 106 -91q113 -44 154 -83q77 -71 77 -188
q0 -136 -99 -234q-103 -102 -283 -102q-126 0 -247 52q-35 16 -95 47zM743 1085h-260l-72 138l-80 -138h-211l157 284h320z" />
    <glyph glyph-name="Scedilla" unicode="&#x15e;" horiz-adv-x="827" vert-adv-y="2457" 
d="M66 34v428q109 -149 235 -149q48 0 80 27q28 24 28 62q0 47 -45 89q-10 9 -80 64q-86 67 -133 126q-90 114 -90 261q0 129 68 246q118 202 347 202q131 0 265 -70v-418q-34 54 -77 90q-72 61 -139 61q-52 0 -81 -37q-17 -21 -17 -45q0 -42 51 -89q11 -11 83 -63
q73 -52 126 -114q92 -105 92 -266q0 -204 -124 -334t-310 -130q-137 0 -279 59zM514 -218l-287 -271l-148 93l246 300z" />
    <glyph glyph-name="scedilla" unicode="&#x15f;" horiz-adv-x="808" vert-adv-y="2457" 
d="M48 79l129 265q95 -99 179 -99q39 0 58 23q10 12 10 26q0 44 -92 76q-98 34 -156 80q-95 76 -95 200q0 142 110 231q117 95 282 95q135 0 284 -77l-121 -260q-88 84 -145 84q-25 0 -41 -14q-15 -13 -15 -31q0 -49 106 -91q113 -44 154 -83q77 -71 77 -188
q0 -136 -99 -234q-103 -102 -283 -102q-126 0 -247 52q-35 16 -95 47zM530 -203l-233 -240l-134 97l200 251z" />
    <glyph glyph-name="Scaron" unicode="&#x160;" horiz-adv-x="827" vert-adv-y="2457" 
d="M66 34v428q109 -149 235 -149q48 0 80 27q28 24 28 62q0 47 -45 89q-10 9 -80 64q-86 67 -133 126q-90 114 -90 261q0 129 68 246q118 202 347 202q131 0 265 -70v-418q-34 54 -77 90q-72 61 -139 61q-52 0 -81 -37q-17 -21 -17 -45q0 -42 51 -89q11 -11 83 -63
q73 -52 126 -114q92 -105 92 -266q0 -204 -124 -334t-310 -130q-137 0 -279 59zM124 1757h278l70 -123l77 123h235l-179 -283h-313z" />
    <glyph glyph-name="scaron" unicode="&#x161;" horiz-adv-x="808" vert-adv-y="2457" 
d="M48 79l129 265q95 -99 179 -99q39 0 58 23q10 12 10 26q0 44 -92 76q-98 34 -156 80q-95 76 -95 200q0 142 110 231q117 95 282 95q135 0 284 -77l-121 -260q-88 84 -145 84q-25 0 -41 -14q-15 -13 -15 -31q0 -49 106 -91q113 -44 154 -83q77 -71 77 -188
q0 -136 -99 -234q-103 -102 -283 -102q-126 0 -247 52q-35 16 -95 47zM134 1369h260l72 -138l80 138h211l-157 -284h-320z" />
    <glyph glyph-name="Tcommaaccent" unicode="&#x162;" horiz-adv-x="784" vert-adv-y="2457" 
d="M572 0h-369v1037h-203v328h784v-328h-212v-1037zM529 -110l-166 -328h-204l117 328h253z" />
    <glyph glyph-name="tcommaaccent" unicode="&#x163;" horiz-adv-x="617" vert-adv-y="2457" 
d="M485 0h-355v671h-101v285h101v281h355v-281h117v-285h-117v-671zM440 -110l-167 -328h-190l117 328h240z" />
    <glyph glyph-name="Tcaron" unicode="&#x164;" horiz-adv-x="784" vert-adv-y="2457" 
d="M572 0h-369v1037h-203v328h784v-328h-212v-1037zM62 1757h278l70 -123l77 123h235l-179 -283h-313z" />
    <glyph glyph-name="tcaron" unicode="&#x165;" horiz-adv-x="931" vert-adv-y="2457" 
d="M485 0h-355v671h-101v285h101v281h355v-281h117v-285h-117v-671zM917 1373l-167 -328h-190l117 328h240z" />
    <glyph glyph-name="Tbar" unicode="&#x166;" horiz-adv-x="784" vert-adv-y="2457" 
d="M23 702v183h180v152h-203v328h784v-328h-212v-152h189v-183h-189v-702h-369v702h-180z" />
    <glyph glyph-name="tbar" unicode="&#x167;" horiz-adv-x="617" vert-adv-y="2457" 
d="M29 370v182h101v119h-101v285h101v281h355v-281h117v-285h-117v-119h117v-182h-117v-370h-355v370h-101z" />
    <glyph glyph-name="Utilde" unicode="&#x168;" horiz-adv-x="1117" vert-adv-y="2457" 
d="M653 1365h369v-966q0 -146 -58 -231q-132 -193 -387 -193q-214 0 -348 118q-79 70 -107 165q-26 85 -26 193v914h369v-881q0 -79 16 -115q21 -49 79 -49q57 0 79 48q14 31 14 115v882zM724 1752h183v-29q0 -100 -57 -172t-158 -72q-63 0 -154 41q-59 27 -86 27
q-51 0 -54 -72h-187q0 75 11 114q20 70 76 116q49 40 120 40q51 0 109 -20l81 -34q32 -14 59 -14q52 0 57 75z" />
    <glyph glyph-name="utilde" unicode="&#x169;" horiz-adv-x="1023" vert-adv-y="2457" 
d="M82 956h355v-539q0 -82 15 -110q16 -31 60 -31q43 0 59 31q15 28 15 110v539h355v-587q0 -149 -64 -231q-67 -86 -188 -128q-83 -30 -177 -30q-168 0 -292 88q-78 55 -109 129q-29 70 -29 172v587zM677 1363h183v-29q0 -101 -57 -173t-158 -72q-63 0 -154 42
q-59 27 -86 27q-51 0 -54 -73h-187q0 75 11 115q20 69 76 115q49 41 120 41q51 0 109 -21l81 -34q32 -14 59 -14q52 0 57 76z" />
    <glyph glyph-name="Umacron" unicode="&#x16a;" horiz-adv-x="1117" vert-adv-y="2457" 
d="M653 1365h369v-966q0 -146 -58 -231q-132 -193 -387 -193q-214 0 -348 118q-79 70 -107 165q-26 85 -26 193v914h369v-881q0 -79 16 -115q21 -49 79 -49q57 0 79 48q14 31 14 115v882zM231 1502v191h655v-191h-655z" />
    <glyph glyph-name="umacron" unicode="&#x16b;" horiz-adv-x="1023" vert-adv-y="2457" 
d="M82 956h355v-539q0 -82 15 -110q16 -31 60 -31q43 0 59 31q15 28 15 110v539h355v-587q0 -149 -64 -231q-67 -86 -188 -128q-83 -30 -177 -30q-168 0 -292 88q-78 55 -109 129q-29 70 -29 172v587zM191 1120v198h642v-198h-642z" />
    <glyph glyph-name="ubreve" unicode="&#x16d;" horiz-adv-x="1023" vert-adv-y="2457" 
d="M82 956h355v-539q0 -82 15 -110q16 -31 60 -31q43 0 59 31q15 28 15 110v539h355v-587q0 -149 -64 -231q-67 -86 -188 -128q-83 -30 -177 -30q-168 0 -292 88q-78 55 -109 129q-29 70 -29 172v587zM190 1390h142q21 -53 48 -75q46 -35 136 -35q84 0 126 35q28 25 48 75
h142q-29 -305 -319 -305q-166 0 -256 120q-58 76 -67 185z" />
    <glyph glyph-name="Uring" unicode="&#x16e;" horiz-adv-x="1117" vert-adv-y="2457" 
d="M653 1365h369v-966q0 -146 -58 -231q-132 -193 -387 -193q-214 0 -348 118q-79 70 -107 165q-26 85 -26 193v914h369v-881q0 -79 16 -115q21 -49 79 -49q57 0 79 48q14 31 14 115v882zM560 1817q74 0 126 -52q52 -53 52 -128q0 -72 -53 -125q-51 -51 -124 -51
q-76 0 -128 54q-50 52 -50 125q0 75 53 126q52 51 124 51zM561 1715q-31 0 -53 -21q-23 -22 -23 -54q0 -31 21 -53q23 -24 56 -24q30 0 52 21q23 23 23 54q0 32 -22 54q-23 23 -54 23z" />
    <glyph glyph-name="uring" unicode="&#x16f;" horiz-adv-x="1023" vert-adv-y="2457" 
d="M82 956h355v-539q0 -82 15 -110q16 -31 60 -31q43 0 59 31q15 28 15 110v539h355v-587q0 -149 -64 -231q-67 -86 -188 -128q-83 -30 -177 -30q-168 0 -292 88q-78 55 -109 129q-29 70 -29 172v587zM511 1465q81 0 138 -57q59 -59 59 -143q0 -78 -57 -136t-139 -58
q-81 0 -138 56q-59 58 -59 141q0 81 56 137q59 60 140 60zM510 1352q-34 0 -58 -24q-25 -25 -25 -60t24 -60t59 -25t59 25t24 59q0 36 -24 60q-24 25 -59 25z" />
    <glyph glyph-name="Uhungarumlaut" unicode="&#x170;" horiz-adv-x="1117" vert-adv-y="2457" 
d="M653 1365h369v-966q0 -146 -58 -231q-132 -193 -387 -193q-214 0 -348 118q-79 70 -107 165q-26 85 -26 193v914h369v-881q0 -79 16 -115q21 -49 79 -49q57 0 79 48q14 31 14 115v882zM653 1783l-172 -309h-185l89 309h268zM995 1783l-173 -309h-185l89 309h269z" />
    <glyph glyph-name="uhungarumlaut" unicode="&#x171;" horiz-adv-x="1023" vert-adv-y="2457" 
d="M82 956h355v-539q0 -82 15 -110q16 -31 60 -31q43 0 59 31q15 28 15 110v539h355v-587q0 -149 -64 -231q-67 -86 -188 -128q-83 -30 -177 -30q-168 0 -292 88q-78 55 -109 129q-29 70 -29 172v587zM246 1086l97 303h252l-166 -303h-183zM587 1086l97 303h252l-166 -303
h-183z" />
    <glyph glyph-name="Uogonek" unicode="&#x172;" horiz-adv-x="1117" vert-adv-y="2457" 
d="M96 1365h369v-881q0 -79 16 -114q21 -49 79 -49q57 0 79 48q14 31 14 114v882h369v-966q0 -160 -64 -246q-26 -36 -139 -122q-74 -57 -74 -137q0 -76 76 -76q30 0 78 16l-18 -148q-57 -21 -113 -21q-98 0 -151 48q-49 46 -49 113q0 84 74 152q-28 -3 -50 -3
q-182 0 -301 73q-109 66 -156 173q-39 90 -39 230v914z" />
    <glyph glyph-name="uogonek" unicode="&#x173;" horiz-adv-x="1023" vert-adv-y="2457" 
d="M82 956h355v-539q0 -82 15 -110q16 -31 60 -31q43 0 59 31q15 28 15 110v539h355v-587q0 -159 -71 -244q-27 -32 -111 -90q-85 -59 -85 -141q0 -74 83 -74q29 0 69 12l-16 -143q-41 -18 -88 -18q-63 0 -116 24q-44 20 -71 60q-24 35 -24 77q0 79 71 151q-44 -3 -69 -3
q-142 0 -246 58q-95 52 -140 129q-45 75 -45 202v587z" />
    <glyph glyph-name="Wcircumflex" unicode="&#x174;" horiz-adv-x="1543" vert-adv-y="2457" 
d="M1266 0h-356l-84 478q-10 58 -28 184q-17 118 -26 191q-8 -69 -19 -187q-9 -94 -20 -171l-70 -495h-359l-304 1365h364l60 -376l17 -118q21 -140 44 -360q30 300 59 464l69 390h317l62 -328q44 -230 77 -542q19 272 46 446l68 424h360zM1101 1474h-278l-71 123l-77 -123
h-234l179 283h312z" />
    <glyph glyph-name="Ycircumflex" unicode="&#x176;" horiz-adv-x="1025" vert-adv-y="2457" 
d="M708 0h-369v578l-339 787h384l67 -202q39 -118 63 -220q40 151 62 218l67 204h382l-317 -787v-578zM843 1474h-278l-71 123l-77 -123h-234l179 283h312z" />
    <glyph glyph-name="ycircumflex" unicode="&#x177;" horiz-adv-x="934" vert-adv-y="2457" 
d="M495 -401h-366l155 441l-284 916h356l69 -274q28 -113 43 -268q37 252 58 335l53 207h355zM778 1085h-260l-72 138l-80 -138h-211l157 284h320z" />
    <glyph glyph-name="Zacute" unicode="&#x179;" horiz-adv-x="1054" vert-adv-y="2457" 
d="M974 0h-940v29l293 667q86 196 184 348h-396v321h905v-38l-336 -744l-97 -202l-34 -70q103 8 135 9l286 8v-328zM827 1783l-173 -309h-205l89 309h289z" />
    <glyph glyph-name="zacute" unicode="&#x17a;" horiz-adv-x="891" vert-adv-y="2457" 
d="M800 0h-766l231 496q34 72 91 175h-270v285h770l-225 -487q-41 -88 -94 -180h263v-289zM349 1086l97 303h286l-180 -303h-203z" />
    <glyph glyph-name="Zdotaccent" unicode="&#x17b;" horiz-adv-x="1054" vert-adv-y="2457" 
d="M974 0h-940v29l293 667q86 196 184 348h-396v321h905v-38l-336 -744l-97 -202l-34 -70q103 8 135 9l286 8v-328zM570 1785q63 0 108 -43q47 -46 47 -112q0 -62 -45 -109q-46 -46 -110 -46q-65 0 -110 46q-45 45 -45 109q0 65 44 109q46 46 111 46z" />
    <glyph glyph-name="zdotaccent" unicode="&#x17c;" horiz-adv-x="891" vert-adv-y="2457" 
d="M800 0h-766l231 496q34 72 91 175h-270v285h770l-225 -487q-41 -88 -94 -180h263v-289zM465 1396q64 0 110 -45q47 -46 47 -113q0 -61 -45 -107q-44 -46 -109 -46q-66 0 -112 46q-45 47 -45 111t45 108q46 46 109 46z" />
    <glyph glyph-name="Zcaron" unicode="&#x17d;" horiz-adv-x="1054" vert-adv-y="2457" 
d="M974 0h-940v29l293 667q86 196 184 348h-396v321h905v-38l-336 -744l-97 -202l-34 -70q103 8 135 9l286 8v-328zM239 1757h278l70 -123l77 123h235l-179 -283h-313z" />
    <glyph glyph-name="zcaron" unicode="&#x17e;" horiz-adv-x="891" vert-adv-y="2457" 
d="M800 0h-766l231 496q34 72 91 175h-270v285h770l-225 -487q-41 -88 -94 -180h263v-289zM157 1369h260l72 -138l80 138h211l-157 -284h-320z" />
    <glyph glyph-name="uni018F" unicode="&#x18f;" horiz-adv-x="1159" vert-adv-y="2457" 
d="M56 782l655 -2v7q0 8 -2 22q-21 131 -29.5 157.5t-37.5 53.5q-30 28 -81 28q-48 0 -74 -27t-44 -86l-336 81q36 111 114 200q151 174 363 174q165 0 290 -103q224 -186 224 -599q0 -340 -156 -537q-65 -83 -159 -130q-93 -46 -196 -46q-151 0 -282 96q-139 101 -195 276
q-46 143 -54 435zM448 589q15 -268 130 -268q48 0 86 63q43 73 54 205h-270z" />
    <glyph glyph-name="Ohorn" unicode="&#x1a0;" horiz-adv-x="1161" vert-adv-y="2457" 
d="M1013 1107q86 -175 86 -416q0 -344 -156 -540q-65 -83 -159 -130q-93 -46 -196 -46q-150 0 -282 95q-245 179 -245 623q0 240 75 393q79 160 214 240q108 64 236 64q218 0 364 -185l82 230h240l-167 -328h-92zM584 1047q-57 0 -93 -74q-48 -96 -48 -289q0 -212 51 -303
q34 -60 84 -60q51 0 88 63q51 86 51 292q0 371 -133 371z" />
    <glyph glyph-name="ohorn" unicode="&#x1a1;" horiz-adv-x="998" vert-adv-y="2457" 
d="M789 860l80 225h240l-167 -328h-61q63 -128 63 -287q0 -217 -114 -351q-120 -140 -335 -140q-204 0 -319 132q-121 138 -121 363q0 216 116 358q119 144 318 144q123 0 194 -35q45 -22 106 -81zM499 708q-37 0 -63 -45q-37 -64 -37 -186q0 -132 44 -196q24 -34 57 -34
q37 0 63 45q37 64 37 182q0 137 -44 200q-23 34 -57 34z" />
    <glyph glyph-name="Uhorn" unicode="&#x1af;" horiz-adv-x="1117" vert-adv-y="2457" 
d="M653 1365h369v-966q0 -146 -58 -231q-132 -193 -387 -193q-214 0 -348 118q-79 70 -107 165q-26 85 -26 193v914h369v-881q0 -79 16 -115q21 -49 79 -49q57 0 79 48q14 31 14 115v882zM1464 1465l-167 -328h-204l117 328h254z" />
    <glyph glyph-name="uhorn" unicode="&#x1b0;" horiz-adv-x="1023" vert-adv-y="2457" 
d="M82 956h355v-539q0 -82 15 -110q16 -31 60 -31q43 0 59 31q15 28 15 110v539h355v-587q0 -149 -64 -231q-67 -86 -188 -128q-83 -30 -177 -30q-168 0 -292 88q-78 55 -109 129q-29 70 -29 172v587zM1366 1054l-167 -328h-190l117 328h240z" />
    <glyph glyph-name="uni01CD" unicode="&#x1cd;" horiz-adv-x="1090" vert-adv-y="2457" 
d="M1079 0h-381l-27 173h-249l-30 -173h-381l328 1365h451zM628 465l-24 159q-19 123 -46 415q-9 -72 -14 -108q-9 -78 -23 -171l-11 -80l-38 -215h156zM236 1757h278l70 -123l77 123h235l-179 -283h-313z" />
    <glyph glyph-name="uni01CE" unicode="&#x1ce;" horiz-adv-x="1017" vert-adv-y="2457" 
d="M936 0h-355l3 45q3 63 9 116q-36 -71 -68 -104q-73 -77 -179 -77q-143 0 -219 148q-72 139 -72 356q0 229 84 364q79 128 216 128q106 0 176 -84q24 -29 54 -87q-4 42 -8 109l-2 42h361v-956zM501 684q-49 0 -69 -59t-20 -179q0 -173 81 -173q84 0 84 218q0 87 -11 131
q-14 62 -65 62zM211 1369h260l72 -138l80 138h211l-157 -284h-320z" />
    <glyph glyph-name="uni01D1" unicode="&#x1d1;" horiz-adv-x="659" vert-adv-y="2457" 
d="M331 1463q86 0 147 -62q59 -60 59 -145q0 -86 -61 -147q-60 -60 -145 -60q-87 0 -148 61q-60 60 -60 149q0 86 62 145t146 59zM145 954h360v-954h-360v954z" />
    <glyph glyph-name="uni01D3" unicode="&#x1d3;" horiz-adv-x="1117" vert-adv-y="2457" 
d="M653 1365h369v-966q0 -146 -58 -231q-132 -193 -387 -193q-214 0 -348 118q-79 70 -107 165q-26 85 -26 193v914h369v-881q0 -79 16 -115q21 -49 79 -49q57 0 79 48q14 31 14 115v882zM229 1757h278l70 -123l77 123h235l-179 -283h-313z" />
    <glyph glyph-name="uni01D4" unicode="&#x1d4;" horiz-adv-x="1023" vert-adv-y="2457" 
d="M82 956h355v-539q0 -82 15 -110q16 -31 60 -31q43 0 59 31q15 28 15 110v539h355v-587q0 -149 -64 -231q-67 -86 -188 -128q-83 -30 -177 -30q-168 0 -292 88q-78 55 -109 129q-29 70 -29 172v587zM200 1369h260l72 -138l80 138h211l-157 -284h-320z" />
    <glyph glyph-name="uni01DD" unicode="&#x1dd;" horiz-adv-x="985" vert-adv-y="2457" 
d="M415 631l-347 6q25 112 80 183q121 155 346 155q199 0 317 -123q120 -126 120 -359q0 -208 -106 -346q-128 -167 -341 -167q-143 0 -252 82q-177 133 -177 426q0 21 1 63h521q-8 146 -82 146q-61 0 -80 -66zM407 360q2 -42 14 -69q22 -52 70 -52q76 0 81 121h-165z" />
    <glyph glyph-name="Gcaron" unicode="&#x1e6;" horiz-adv-x="1147" vert-adv-y="2457" 
d="M570 789h515v-56q0 -225 -32 -360q-53 -222 -199 -320q-115 -78 -266 -78q-163 0 -290 90q-237 169 -237 611q0 303 123 497q137 217 403 217q323 0 468 -338l-357 -131q-8 64 -38 103q-28 37 -70 37q-69 0 -108 -83q-44 -95 -44 -335q0 -201 41 -275q35 -64 99 -64
q62 0 98 62q29 50 30 136h-136v287zM257 1757h278l70 -123l77 123h235l-179 -283h-313z" />
    <glyph glyph-name="gcaron" unicode="&#x1e7;" horiz-adv-x="1009" vert-adv-y="2457" 
d="M927 956v-984q0 -135 -38 -212q-56 -113 -192 -168q-88 -36 -201 -36q-249 0 -354 140q-56 76 -75 206h363q5 -78 74 -78q55 0 72 45q11 30 11 91v151q-94 -125 -223 -125q-88 0 -164 66q-145 126 -145 426q0 220 86 359q38 63 99 103q55 36 121 36q85 0 148 -62
q28 -28 67 -83l-7 125h358zM507 688q-85 0 -85 -202q0 -131 36 -181q20 -27 46 -27q79 0 79 202q0 208 -76 208zM207 1369h260l72 -138l80 138h211l-157 -284h-320z" />
    <glyph glyph-name="uni01F4" unicode="&#x1f4;" horiz-adv-x="1147" vert-adv-y="2457" 
d="M570 789h515v-56q0 -225 -32 -360q-53 -222 -199 -320q-115 -78 -266 -78q-163 0 -290 90q-237 169 -237 611q0 303 123 497q137 217 403 217q323 0 468 -338l-357 -131q-8 64 -38 103q-28 37 -70 37q-69 0 -108 -83q-44 -95 -44 -335q0 -201 41 -275q35 -64 99 -64
q62 0 98 62q29 50 30 136h-136v287zM845 1783l-173 -309h-205l89 309h289z" />
    <glyph glyph-name="Scommaaccent" unicode="&#x218;" horiz-adv-x="827" vert-adv-y="2457" 
d="M66 34v428q109 -149 235 -149q48 0 80 27q28 24 28 62q0 47 -45 89q-10 9 -80 64q-86 67 -133 126q-90 114 -90 261q0 129 68 246q118 202 347 202q131 0 265 -70v-418q-34 54 -77 90q-72 61 -139 61q-52 0 -81 -37q-17 -21 -17 -45q0 -42 51 -89q11 -11 83 -63
q73 -52 126 -114q92 -105 92 -266q0 -204 -124 -334t-310 -130q-137 0 -279 59zM523 -110l-166 -328h-204l117 328h253z" />
    <glyph glyph-name="scommaaccent" unicode="&#x219;" horiz-adv-x="808" vert-adv-y="2457" 
d="M48 79l129 265q95 -99 179 -99q39 0 58 23q10 12 10 26q0 44 -92 76q-98 34 -156 80q-95 76 -95 200q0 142 110 231q117 95 282 95q135 0 284 -77l-121 -260q-88 84 -145 84q-25 0 -41 -14q-15 -13 -15 -31q0 -49 106 -91q113 -44 154 -83q77 -71 77 -188
q0 -136 -99 -234q-103 -102 -283 -102q-126 0 -247 52q-35 16 -95 47zM530 -110l-167 -328h-190l117 328h240z" />
    <glyph glyph-name="uni021A" unicode="&#x21a;" horiz-adv-x="784" vert-adv-y="2457" 
d="M572 0h-369v1037h-203v328h784v-328h-212v-1037zM529 -110l-166 -328h-204l117 328h253z" />
    <glyph glyph-name="uni021B" unicode="&#x21b;" horiz-adv-x="617" vert-adv-y="2457" 
d="M485 0h-355v671h-101v285h101v281h355v-281h117v-285h-117v-671zM440 -110l-167 -328h-190l117 328h240z" />
    <glyph glyph-name="Adotaccent" unicode="&#x226;" horiz-adv-x="1090" vert-adv-y="2457" 
d="M1079 0h-381l-27 173h-249l-30 -173h-381l328 1365h451zM628 465l-24 159q-19 123 -46 415q-9 -72 -14 -108q-9 -78 -23 -171l-11 -80l-38 -215h156zM564 1785q63 0 108 -43q47 -46 47 -112q0 -62 -45 -109q-46 -46 -110 -46q-65 0 -110 46q-45 45 -45 109q0 65 44 109
q46 46 111 46z" />
    <glyph glyph-name="adotaccent" unicode="&#x227;" horiz-adv-x="1017" vert-adv-y="2457" 
d="M936 0h-355l3 45q3 63 9 116q-36 -71 -68 -104q-73 -77 -179 -77q-143 0 -219 148q-72 139 -72 356q0 229 84 364q79 128 216 128q106 0 176 -84q24 -29 54 -87q-4 42 -8 109l-2 42h361v-956zM501 684q-49 0 -69 -59t-20 -179q0 -173 81 -173q84 0 84 218q0 87 -11 131
q-14 62 -65 62zM522 1396q64 0 110 -45q47 -46 47 -113q0 -61 -45 -107q-44 -46 -109 -46q-66 0 -112 46q-45 47 -45 111t45 108q46 46 109 46z" />
    <glyph glyph-name="dotlessj" unicode="&#x237;" horiz-adv-x="520" vert-adv-y="2457" 
d="M438 -419h-354l-2 1375h356v-1375z" />
    <glyph glyph-name="uni0259" unicode="&#x259;" horiz-adv-x="985" vert-adv-y="2457" 
d="M415 631l-347 6q25 112 80 183q121 155 346 155q199 0 317 -123q120 -126 120 -359q0 -208 -106 -346q-128 -167 -341 -167q-143 0 -252 82q-177 133 -177 426q0 21 1 63h521q-8 146 -82 146q-61 0 -80 -66zM407 360q2 -42 14 -69q22 -52 70 -52q76 0 81 121h-165z" />
    <glyph glyph-name="afii57929" unicode="&#x2bc;" horiz-adv-x="679" vert-adv-y="2457" 
d="M611 1365l-238 -656h-291l167 656h362z" />
    <glyph glyph-name="uni02C9" unicode="&#x2c9;" vert-adv-y="2457" 
d="M191 1120v198h642v-198h-642z" />
    <glyph glyph-name="tonos" unicode="&#x384;" horiz-adv-x="583" vert-adv-y="2457" 
d="M398 1064h-212l-49 367h310z" />
    <glyph glyph-name="dieresistonos" unicode="&#x385;" vert-adv-y="2457" 
d="M177 1381q61 0 104 -42q45 -44 45 -108q0 -58 -42 -102q-43 -44 -105 -44t-106 44q-43 44 -43 105q0 62 43 104q43 43 104 43zM843 1381q61 0 104 -42q45 -44 45 -108q0 -58 -42 -102q-43 -44 -105 -44t-106 44q-43 44 -43 105q0 62 43 104q44 43 104 43zM618 1064h-212
l-49 367h310z" />
    <glyph glyph-name="Alphatonos" unicode="&#x386;" horiz-adv-x="1201" vert-adv-y="2457" 
d="M1190 0h-381l-27 173h-249l-30 -173h-381l328 1365h451zM739 465l-24 159q-19 123 -46 415q-9 -72 -14 -108q-9 -78 -23 -171l-11 -80l-38 -215h156zM261 1064h-212l-49 367h310z" />
    <glyph glyph-name="uni0387" unicode="&#x387;" horiz-adv-x="598" vert-adv-y="2457" 
d="M296 698q85 0 146 -59q63 -61 63 -152q0 -82 -60 -142t-146 -60q-87 0 -147 62q-60 61 -60 146q0 86 59 144q61 61 145 61z" />
    <glyph glyph-name="Epsilontonos" unicode="&#x388;" horiz-adv-x="1139" vert-adv-y="2457" 
d="M392 0v1365h685v-321h-316v-199h284v-309h-284v-208h316v-328h-685zM261 1064h-212l-49 367h310z" />
    <glyph glyph-name="Etatonos" unicode="&#x389;" horiz-adv-x="1401" vert-adv-y="2457" 
d="M1305 0h-369v549h-175v-549h-369v1365h369v-483h175v483h369v-1365zM261 1064h-212l-49 367h310z" />
    <glyph glyph-name="Iotatonos" unicode="&#x38a;" horiz-adv-x="856" vert-adv-y="2457" 
d="M761 0h-369v1365h369v-1365zM261 1064h-212l-49 367h310z" />
    <glyph glyph-name="Omicrontonos" unicode="&#x38c;" horiz-adv-x="1371" vert-adv-y="2457" 
d="M795 1390q165 0 291 -104q224 -185 224 -608q0 -331 -156 -527q-66 -83 -159 -130q-93 -46 -196 -46q-151 0 -282 95q-245 179 -245 623q0 337 161 523q150 174 362 174zM795 1046q-57 0 -93 -74q-48 -96 -48 -289q0 -212 51 -303q33 -60 84 -60q50 0 87 63q51 86 51 292
q0 371 -132 371zM261 1064h-212l-49 367h310z" />
    <glyph glyph-name="Upsilontonos" unicode="&#x38e;" horiz-adv-x="1386" vert-adv-y="2457" 
d="M1068 0h-369v578l-339 787h384l67 -202q39 -118 63 -220q40 151 62 218l67 204h382l-317 -787v-578zM261 1064h-212l-49 367h310z" />
    <glyph glyph-name="Omegatonos" unicode="&#x38f;" horiz-adv-x="1399" vert-adv-y="2457" 
d="M247 0v264h187v66q-61 63 -90 115q-66 118 -66 311q0 290 146 471q132 163 379 163q246 0 378 -163q146 -181 146 -472q0 -192 -66 -310q-29 -53 -90 -115v-66h187v-264h-490v386q44 74 59 129q20 71 20 183q0 210 -54 292q-37 56 -90 56q-63 0 -100 -71
q-45 -85 -45 -277q0 -112 20 -183q15 -55 59 -129v-386h-490zM261 1064h-212l-49 367h310z" />
    <glyph glyph-name="iotadieresistonos" unicode="&#x390;" horiz-adv-x="691" vert-adv-y="2457" 
d="M523 0h-355v956h355v-956zM10 1381q61 0 104 -42q45 -44 45 -108q0 -58 -42 -102q-43 -44 -105 -44t-106 44q-43 44 -43 105q0 62 43 104q43 43 104 43zM676 1381q61 0 104 -42q45 -44 45 -108q0 -58 -42 -102q-43 -44 -105 -44t-106 44q-43 44 -43 105q0 62 43 104
q44 43 104 43zM451 1064h-212l-49 367h310z" />
    <glyph glyph-name="Alpha" unicode="&#x391;" horiz-adv-x="1090" vert-adv-y="2457" 
d="M1079 0h-381l-27 173h-249l-30 -173h-381l328 1365h451zM628 465l-24 159q-19 123 -46 415q-9 -72 -14 -108q-9 -78 -23 -171l-11 -80l-38 -215h156z" />
    <glyph glyph-name="Beta" unicode="&#x392;" horiz-adv-x="1085" vert-adv-y="2457" 
d="M96 0v1365h429q240 0 356 -107q118 -109 118 -281q0 -150 -104 -229q-52 -40 -150 -48q130 -19 191 -74q89 -82 89 -235q0 -103 -47 -194q-101 -197 -365 -197h-517zM465 296q21 -1 32 -1q56 0 95 24q56 35 56 109q0 60 -41 95q-40 35 -113 35q-11 0 -29 -1v-261z
M465 834h24q64 0 101 28q43 33 43 89q0 57 -36 90q-31 29 -94 29q-12 0 -38 -1v-235z" />
    <glyph glyph-name="Gamma" unicode="&#x393;" horiz-adv-x="796" vert-adv-y="2457" 
d="M742 1365v-328h-277v-1037h-369v1365h646z" />
    <glyph glyph-name="uni0394" unicode="&#x394;" horiz-adv-x="1090" vert-adv-y="2457" 
d="M1079 0h-1068l328 1365h451zM443 292h211l-50 333q-19 122 -46 414q-9 -72 -14 -107q-9 -79 -23 -171l-11 -81z" />
    <glyph glyph-name="Epsilon" unicode="&#x395;" horiz-adv-x="842" vert-adv-y="2457" 
d="M96 0v1365h685v-321h-316v-199h284v-309h-284v-208h316v-328h-685z" />
    <glyph glyph-name="Zeta" unicode="&#x396;" horiz-adv-x="1054" vert-adv-y="2457" 
d="M974 0h-940v29l293 667q86 196 184 348h-396v321h905v-38l-336 -744l-97 -202l-34 -70q103 8 135 9l286 8v-328z" />
    <glyph glyph-name="Eta" unicode="&#x397;" horiz-adv-x="1105" vert-adv-y="2457" 
d="M1009 0h-369v549h-175v-549h-369v1365h369v-483h175v483h369v-1365z" />
    <glyph glyph-name="Theta" unicode="&#x398;" horiz-adv-x="1161" vert-adv-y="2457" 
d="M655 824v-281h-150v281h150zM584 1390q165 0 291 -104q224 -185 224 -608q0 -331 -156 -527q-66 -83 -159 -130q-93 -46 -196 -46q-151 0 -282 95q-245 179 -245 623q0 337 161 523q150 174 362 174zM584 1046q-62 0 -102 -74q-52 -96 -52 -289q0 -213 56 -304
q37 -59 93 -59q55 0 95 63q56 86 56 291q0 372 -146 372z" />
    <glyph glyph-name="Iota" unicode="&#x399;" horiz-adv-x="560" vert-adv-y="2457" 
d="M465 0h-369v1365h369v-1365z" />
    <glyph glyph-name="Kappa" unicode="&#x39a;" horiz-adv-x="1108" vert-adv-y="2457" 
d="M1098 0h-398l-245 629l10 -629h-369v1365h369l-10 -585l217 585h390l-295 -659z" />
    <glyph glyph-name="Lambda" unicode="&#x39b;" horiz-adv-x="1083" vert-adv-y="2457" 
d="M383 1365h376l313 -1365h-387l-67 390q-39 224 -62 501q-18 -239 -57 -440l-87 -451h-401z" />
    <glyph glyph-name="Mu" unicode="&#x39c;" horiz-adv-x="1569" vert-adv-y="2457" 
d="M1500 0h-385l-27 623q-2 51 -4 124l-4 124q-15 -144 -38 -263l-116 -608h-300l-106 656q-10 63 -25 215q-1 -78 -4 -199l-3 -104l-31 -568h-396l159 1365h459l77 -460q19 -113 31 -267q13 131 32 233l93 494h456z" />
    <glyph glyph-name="Nu" unicode="&#x39d;" horiz-adv-x="1152" vert-adv-y="2457" 
d="M96 0v1365h352l184 -479q31 -81 115 -344q-42 346 -42 516v307h352v-1365h-352l-186 502q-58 158 -94 284q23 -280 23 -438v-348h-352z" />
    <glyph glyph-name="Xi" unicode="&#x39e;" horiz-adv-x="1009" vert-adv-y="2457" 
d="M82 1044v321h845v-321h-845zM115 536v309h780v-309h-780zM82 0v328h845v-328h-845z" />
    <glyph glyph-name="Omicron" unicode="&#x39f;" horiz-adv-x="1161" vert-adv-y="2457" 
d="M584 1390q165 0 291 -104q224 -185 224 -608q0 -331 -156 -527q-66 -83 -159 -130q-93 -46 -196 -46q-151 0 -282 95q-245 179 -245 623q0 337 161 523q150 174 362 174zM584 1046q-57 0 -93 -74q-48 -96 -48 -289q0 -212 51 -303q33 -60 84 -60q50 0 87 63q51 86 51 292
q0 371 -132 371z" />
    <glyph glyph-name="Pi" unicode="&#x3a0;" horiz-adv-x="1105" vert-adv-y="2457" 
d="M1009 0h-369v1032h-175v-1032h-369v1365h913v-1365z" />
    <glyph glyph-name="Rho" unicode="&#x3a1;" horiz-adv-x="1035" vert-adv-y="2457" 
d="M465 0h-369v1365h357q267 0 397 -109q152 -128 152 -356q0 -149 -64 -259q-85 -147 -266 -182q-61 -12 -149 -12q-17 0 -58 1v-448zM465 754q12 -1 17 -1q53 0 93 29q54 38 54 124q0 74 -42 120q-37 41 -96 41q-10 0 -26 -1v-312z" />
    <glyph glyph-name="Sigma" unicode="&#x3a3;" horiz-adv-x="996" vert-adv-y="2457" 
d="M314 701l-292 626v38h905v-321h-362l129 -296l-159 -410q105 8 135 9l270 8v-355h-940v29z" />
    <glyph glyph-name="Tau" unicode="&#x3a4;" horiz-adv-x="784" vert-adv-y="2457" 
d="M572 0h-369v1037h-203v328h784v-328h-212v-1037z" />
    <glyph glyph-name="Upsilon" unicode="&#x3a5;" horiz-adv-x="1025" vert-adv-y="2457" 
d="M708 0h-369v578l-339 787h384l67 -202q39 -118 63 -220q40 151 62 218l67 204h382l-317 -787v-578z" />
    <glyph glyph-name="Phi" unicode="&#x3a6;" horiz-adv-x="1635" vert-adv-y="2457" 
d="M645 -109v214q-216 15 -371 113q-213 134 -213 465q0 329 215 464q156 98 369 112v214h344v-214q584 -46 584 -574q0 -335 -214 -468q-154 -95 -370 -112v-214h-344zM989 387q215 32 215 299q0 175 -87 240q-50 38 -128 50v-589zM645 387v589q-79 -12 -129 -50
q-86 -67 -86 -239q0 -179 93 -251q49 -38 122 -49z" />
    <glyph glyph-name="Chi" unicode="&#x3a7;" horiz-adv-x="1059" vert-adv-y="2457" 
d="M1059 0h-410l-68 195l-19 59q-23 71 -34 112q-55 -178 -59 -187l-67 -179h-402l332 708l-314 657h411l61 -185l12 -39l30 -98q20 92 33 135l56 187h414l-312 -657z" />
    <glyph glyph-name="Psi" unicode="&#x3a8;" horiz-adv-x="1447" vert-adv-y="2457" 
d="M902 1365v-761q54 6 87 28q32 23 42 61q7 24 7 72v600h355v-633q0 -193 -91 -301q-104 -122 -307 -162q-45 -8 -93 -11v-258h-355v258q-149 8 -269 71q-125 66 -178 172q-45 91 -45 231v633h355v-600q0 -66 16 -95q30 -56 121 -66v761h355z" />
    <glyph glyph-name="uni03A9" unicode="&#x3a9;" horiz-adv-x="1193" vert-adv-y="2457" 
d="M41 0v264h187v66q-61 63 -90 115q-66 118 -66 311q0 290 146 471q132 163 379 163q246 0 378 -163q146 -181 146 -472q0 -192 -66 -310q-29 -53 -90 -115v-66h187v-264h-490v386q44 74 59 129q20 71 20 183q0 210 -54 292q-37 56 -90 56q-63 0 -100 -71q-45 -85 -45 -277
q0 -112 20 -183q15 -55 59 -129v-386h-490z" />
    <glyph glyph-name="Iotadieresis" unicode="&#x3aa;" horiz-adv-x="560" vert-adv-y="2457" 
d="M465 0h-369v1365h369v-1365zM453 1735q54 0 92 -38t38 -93q0 -52 -38 -91q-37 -38 -91 -38q-55 0 -94 39q-37 38 -37 92q0 55 39 92t91 37zM109 1735q53 0 90 -36q40 -38 40 -94q0 -52 -38 -91t-92 -39t-92 38t-38 92t37 91q39 39 93 39z" />
    <glyph glyph-name="Upsilondieresis" unicode="&#x3ab;" horiz-adv-x="1025" vert-adv-y="2457" 
d="M708 0h-369v578l-339 787h384l67 -202q39 -118 63 -220q40 151 62 218l67 204h382l-317 -787v-578zM715 1772q62 0 106 -44q43 -43 43 -106q0 -59 -43 -103t-105 -44q-63 0 -106 45q-43 44 -43 105q0 63 44 105q45 42 104 42zM309 1771q60 0 103 -41q45 -44 45 -107
q0 -59 -43 -104q-43 -44 -105 -44t-105 44q-43 43 -43 104q0 62 42 104q44 44 106 44z" />
    <glyph glyph-name="alphatonos" unicode="&#x3ac;" horiz-adv-x="1017" vert-adv-y="2457" 
d="M936 0h-355l3 45q3 63 9 116q-36 -71 -68 -104q-73 -77 -179 -77q-143 0 -219 148q-72 139 -72 356q0 229 84 364q79 128 216 128q106 0 176 -84q24 -29 54 -87q-4 42 -8 109l-2 42h361v-956zM501 684q-49 0 -69 -59t-20 -179q0 -173 81 -173q84 0 84 218q0 87 -11 131
q-14 62 -65 62zM694 1064h-212l-49 367h310z" />
    <glyph glyph-name="epsilontonos" unicode="&#x3ad;" horiz-adv-x="809" vert-adv-y="2457" 
d="M704 581v-206l-47 1h-89q-145 0 -145 -66q0 -67 163 -67q53 0 169 9v-259q-146 -14 -240 -14q-247 0 -354 84q-52 41 -78 114q-17 48 -17 100q0 139 116 201q-96 62 -96 198q0 85 41 155q85 145 372 145q62 0 240 -9v-259q-97 4 -150 4q-154 0 -154 -66q0 -24 15 -38
q32 -29 137 -29q26 0 117 2zM589 1064h-212l-49 367h310z" />
    <glyph glyph-name="etatonos" unicode="&#x3ae;" horiz-adv-x="1005" vert-adv-y="2457" 
d="M923 -427h-355v933q0 67 -13 91q-13 26 -44 26q-74 0 -74 -141v-482h-355v956h355q-2 -65 -8 -182q86 203 251 203q82 0 147 -55q96 -79 96 -270v-1079zM609 1064h-212l-49 367h310z" />
    <glyph glyph-name="iotatonos" unicode="&#x3af;" horiz-adv-x="519" vert-adv-y="2457" 
d="M437 0h-355v956h355v-956zM365 1064h-212l-49 367h310z" />
    <glyph glyph-name="upsilondieresistonos" unicode="&#x3b0;" horiz-adv-x="1046" vert-adv-y="2457" 
d="M94 956h355v-539q0 -82 15 -110q16 -31 60 -31q43 0 59 31q15 28 15 110v539h355v-587q0 -149 -64 -231q-67 -86 -188 -128q-83 -30 -177 -30q-168 0 -292 88q-78 55 -109 129q-29 70 -29 172v587zM188 1381q61 0 104 -42q45 -44 45 -108q0 -58 -42 -102
q-43 -44 -105 -44t-106 44q-43 44 -43 105q0 62 43 104q43 43 104 43zM854 1381q61 0 104 -42q45 -44 45 -108q0 -58 -42 -102q-43 -44 -105 -44t-106 44q-43 44 -43 105q0 62 43 104q44 43 104 43zM629 1064h-212l-49 367h310z" />
    <glyph glyph-name="alpha" unicode="&#x3b1;" horiz-adv-x="1017" vert-adv-y="2457" 
d="M936 0h-355l3 45q3 63 9 116q-36 -71 -68 -104q-73 -77 -179 -77q-143 0 -219 148q-72 139 -72 356q0 229 84 364q79 128 216 128q106 0 176 -84q24 -29 54 -87q-4 42 -8 109l-2 42h361v-956zM501 684q-49 0 -69 -59t-20 -179q0 -173 81 -173q84 0 84 218q0 87 -11 131
q-14 62 -65 62z" />
    <glyph glyph-name="beta" unicode="&#x3b2;" vert-adv-y="2457" 
d="M82 -427v1414q0 163 20 241q73 279 387 279q194 0 302 -117q107 -116 107 -289q0 -197 -145 -286q83 -30 124 -85q86 -119 86 -297q0 -207 -115 -342q-96 -114 -223 -114q-69 0 -125 34q-35 21 -77 71v-509h-341zM423 328q45 -53 83 -53q28 0 51 25q54 62 54 194
q0 145 -55 181q-15 11 -57 11v215q25 1 36 9q40 29 40 144q0 89 -36 125q-17 17 -41 17q-43 0 -62 -54q-13 -38 -13 -141v-673z" />
    <glyph glyph-name="gamma" unicode="&#x3b3;" horiz-adv-x="934" vert-adv-y="2457" 
d="M637 -427h-353v427l-284 956h356l69 -314q30 -137 43 -268q30 204 58 335l53 247h354l-296 -956v-427z" />
    <glyph glyph-name="delta" unicode="&#x3b4;" horiz-adv-x="998" vert-adv-y="2457" 
d="M372 962q-71 101 -91 137q-44 76 -44 155q0 84 46 145q56 75 176 91q32 4 112 4h246v-285h-186q-40 0 -40 -26q0 -17 19 -47q3 -6 63 -88l82 -111q100 -135 127 -189q62 -121 62 -273q0 -222 -114 -356q-120 -140 -335 -140q-204 0 -319 132q-121 139 -121 364
q0 165 70 289q87 155 247 198zM499 709q-37 0 -63 -45q-37 -64 -37 -186q0 -133 44 -197q23 -34 57 -34q37 0 63 45q37 65 37 183q0 136 -44 200q-23 34 -57 34z" />
    <glyph glyph-name="epsilon" unicode="&#x3b5;" horiz-adv-x="809" vert-adv-y="2457" 
d="M704 581v-206l-47 1h-89q-145 0 -145 -66q0 -67 163 -67q53 0 169 9v-259q-146 -14 -240 -14q-247 0 -354 84q-52 41 -78 114q-17 48 -17 100q0 139 116 201q-96 62 -96 198q0 85 41 155q85 145 372 145q62 0 240 -9v-259q-97 4 -150 4q-154 0 -154 -66q0 -24 15 -38
q32 -29 137 -29q26 0 117 2z" />
    <glyph glyph-name="zeta" unicode="&#x3b6;" horiz-adv-x="791" vert-adv-y="2457" 
d="M338 1209h-248v285h676q-181 -375 -225 -476q-79 -181 -107 -294q-31 -125 -31 -265q0 -112 39 -159q20 -24 135 -89q152 -85 152 -235q0 -171 -154 -395l-257 170l44 69q36 63 36 112t-58 71q-131 48 -193 130q-85 112 -85 310q0 398 276 766z" />
    <glyph glyph-name="eta" unicode="&#x3b7;" horiz-adv-x="1005" vert-adv-y="2457" 
d="M923 -427h-355v933q0 67 -13 91q-13 26 -44 26q-74 0 -74 -141v-482h-355v956h355q-2 -65 -8 -182q86 203 251 203q82 0 147 -55q96 -79 96 -270v-1079z" />
    <glyph glyph-name="theta" unicode="&#x3b8;" horiz-adv-x="998" vert-adv-y="2457" 
d="M611 604h-223q7 -114 27 -216q28 -142 84 -142q57 0 85 142q20 103 27 216zM389 876h221l-1 7q-27 341 -110 341q-56 0 -84 -142q-20 -104 -26 -206zM497 1491q153 0 265 -121q182 -197 182 -656q0 -312 -114 -522q-116 -212 -335 -212q-208 0 -319 200
q-121 217 -121 551q0 324 116 541q118 219 326 219z" />
    <glyph glyph-name="iota" unicode="&#x3b9;" horiz-adv-x="519" vert-adv-y="2457" 
d="M437 0h-355v956h355v-956z" />
    <glyph glyph-name="kappa" unicode="&#x3ba;" horiz-adv-x="1013" vert-adv-y="2457" 
d="M606 0l-137 371q-10 26 -32 109v-480h-355v956h355v-431q22 74 53 149l116 282h383l-235 -439l259 -517h-407z" />
    <glyph glyph-name="lambda" unicode="&#x3bb;" horiz-adv-x="934" vert-adv-y="2457" 
d="M131 1494h338l465 -1494h-357l-68 274q-28 113 -44 268q-37 -252 -58 -335l-53 -207h-354l326 1009z" />
    <glyph glyph-name="uni03BC" unicode="&#x3bc;" horiz-adv-x="1029" vert-adv-y="2457" 
d="M948 2h-355l1 55q-56 -59 -131 -59q-9 0 -26 1v-426h-355v1383h355v-538q0 -83 15 -111q16 -31 60 -31q47 0 65 31q16 28 16 111v538h355v-954z" />
    <glyph glyph-name="nu" unicode="&#x3bd;" horiz-adv-x="912" vert-adv-y="2457" 
d="M634 0h-370l-264 956h359l55 -280q16 -84 40 -325q26 199 47 306l62 299h349z" />
    <glyph glyph-name="xi" unicode="&#x3be;" horiz-adv-x="745" vert-adv-y="2457" 
d="M228 843q-90 75 -90 180q0 59 33 125q10 20 34 60h-124v285h652q-132 -167 -197 -259q-86 -121 -86 -198q0 -41 32 -64q31 -23 85 -23q50 0 122 6l-69 -266q-53 8 -85 8q-83 0 -107 -59q-23 -54 -23 -162q0 -137 36 -176q22 -25 136 -89q151 -85 151 -236
q0 -171 -154 -394l-257 170q31 46 44 69q36 63 36 112t-58 71q-131 48 -193 130q-85 112 -85 295q0 170 73 304q35 62 94 111z" />
    <glyph glyph-name="omicron" unicode="&#x3bf;" horiz-adv-x="998" vert-adv-y="2457" 
d="M496 976q232 0 351 -165q97 -133 97 -348q0 -210 -114 -344q-120 -140 -336 -140q-203 0 -318 132q-121 139 -121 363q0 217 116 358q120 144 325 144zM499 708q-37 0 -63 -45q-37 -64 -37 -186q0 -132 44 -196q24 -34 57 -34q37 0 63 45q37 64 37 182q0 137 -44 200
q-23 34 -57 34z" />
    <glyph glyph-name="rho" unicode="&#x3c1;" horiz-adv-x="1013" vert-adv-y="2457" 
d="M437 -427h-355v842q0 187 36 288q98 273 410 273q195 0 302 -115q129 -138 129 -391q0 -238 -98 -381q-34 -51 -93 -81q-53 -28 -113 -28q-84 0 -149 55q-36 30 -77 95q8 -103 8 -159v-398zM508 684q-82 0 -82 -201q0 -118 31 -170q20 -34 49 -34q33 0 56 41
q30 53 30 167q0 113 -32 163q-22 34 -52 34z" />
    <glyph glyph-name="uni03C2" unicode="&#x3c2;" horiz-adv-x="745" vert-adv-y="2457" 
d="M575 -419l-258 170q31 46 45 69q36 62 36 112q0 49 -58 71q-131 48 -193 129q-86 113 -86 308q0 237 88 376q100 160 345 160q103 0 199 -32v-305q-85 53 -165 53q-76 0 -100 -58q-23 -55 -23 -160q0 -135 36 -175q23 -25 136 -88q152 -85 152 -236q0 -170 -154 -394z
" />
    <glyph glyph-name="sigma" unicode="&#x3c3;" horiz-adv-x="1039" vert-adv-y="2457" 
d="M641 956h371v-285h-97q29 -97 29 -202q0 -216 -114 -350q-120 -140 -335 -140q-204 0 -319 132q-121 139 -121 364q0 215 116 357q118 144 325 144q78 0 145 -20zM499 709q-37 0 -63 -45q-37 -64 -37 -186q0 -133 44 -197q23 -34 57 -34q37 0 63 45q37 65 37 183
q0 137 -44 200q-23 34 -57 34z" />
    <glyph glyph-name="tau" unicode="&#x3c4;" horiz-adv-x="792" vert-adv-y="2457" 
d="M574 0h-355v671h-205v285h765v-285h-205v-671z" />
    <glyph glyph-name="upsilon" unicode="&#x3c5;" horiz-adv-x="1023" vert-adv-y="2457" 
d="M82 956h355v-539q0 -82 15 -110q16 -31 60 -31q43 0 59 31q15 28 15 110v539h355v-587q0 -149 -64 -231q-67 -86 -188 -128q-83 -30 -177 -30q-168 0 -292 88q-78 55 -109 129q-29 70 -29 172v587z" />
    <glyph glyph-name="phi" unicode="&#x3c6;" horiz-adv-x="1352" vert-adv-y="2457" 
d="M506 -25q-78 8 -123 18q-161 38 -249 180q-79 126 -79 302q0 245 150 388q47 45 114 77l134 -243q-67 -68 -67 -218q0 -143 56 -209q27 -32 64 -36v722q125 20 235 20q557 0 557 -508q0 -166 -72 -285q-86 -143 -250 -186q-46 -12 -129 -22v-402h-341v402zM847 234
q27 3 44 16q77 61 77 228t-76 228q-16 13 -45 16v-488z" />
    <glyph glyph-name="chi" unicode="&#x3c7;" horiz-adv-x="964" vert-adv-y="2457" 
d="M964 -427h-404l-30 154q-3 17 -18 71q-14 49 -31 128q-20 -84 -52 -199l-43 -154h-386l291 716l-275 667h393l37 -180q3 -10 18 -71q6 -25 17 -75q15 68 34 146l45 180h377l-283 -667z" />
    <glyph glyph-name="psi" unicode="&#x3c8;" horiz-adv-x="1434" vert-adv-y="2457" 
d="M887 -20v-407h-341v407q-140 -1 -256 54q-110 53 -160 132q-48 77 -48 204v586h341v-538q0 -93 24 -122q29 -34 88 -34q3 0 11 1v693h341v-693q8 -1 11 -1q60 0 88 34q25 29 25 122v538h341v-586q0 -168 -94 -258q-101 -98 -270 -125q-48 -7 -101 -7z" />
    <glyph glyph-name="omega" unicode="&#x3c9;" horiz-adv-x="1327" vert-adv-y="2457" 
d="M813 681q-6 -159 -6 -201q0 -233 62 -233q27 0 44 54q24 78 24 212q0 197 -83 343q-44 77 -87 100h362q54 -69 83 -136q61 -137 61 -332q0 -232 -88 -366q-93 -143 -279 -143q-134 0 -210 85q-20 23 -32 53q-11 -30 -32 -53q-77 -85 -210 -85q-186 0 -279 143
q-88 134 -88 366q0 222 79 370q25 46 65 98h362q-43 -23 -87 -100q-45 -78 -64 -156q-19 -79 -19 -190q0 -145 29 -221q16 -42 39 -42q63 0 63 233q0 37 -8 201h299z" />
    <glyph glyph-name="iotadieresis" unicode="&#x3ca;" horiz-adv-x="519" vert-adv-y="2457" 
d="M437 0h-355v956h355v-956zM424 1345q54 0 92 -38t38 -93q0 -53 -38 -91t-91 -38q-56 0 -94 39q-37 38 -37 92q0 55 39 92t91 37zM94 1345q53 0 90 -36q40 -38 40 -94q0 -52 -38 -91t-92 -39t-92 38t-38 92t37 91q39 39 93 39z" />
    <glyph glyph-name="upsilondieresis" unicode="&#x3cb;" horiz-adv-x="1023" vert-adv-y="2457" 
d="M82 956h355v-539q0 -82 15 -110q16 -31 60 -31q43 0 59 31q15 28 15 110v539h355v-587q0 -149 -64 -231q-67 -86 -188 -128q-83 -30 -177 -30q-168 0 -292 88q-78 55 -109 129q-29 70 -29 172v587zM314 1381q61 0 104 -42q45 -44 45 -108q0 -58 -42 -102
q-43 -44 -105 -44t-106 44q-43 44 -43 105q0 62 43 104q43 43 104 43zM707 1381q61 0 104 -42q45 -44 45 -108q0 -59 -42 -102q-43 -44 -105 -44t-106 44q-43 44 -43 105q0 62 43 104q44 43 104 43z" />
    <glyph glyph-name="omicrontonos" unicode="&#x3cc;" horiz-adv-x="998" vert-adv-y="2457" 
d="M496 976q232 0 351 -165q97 -133 97 -348q0 -210 -114 -344q-120 -140 -336 -140q-203 0 -318 132q-121 139 -121 363q0 217 116 358q120 144 325 144zM499 708q-37 0 -63 -45q-37 -64 -37 -186q0 -132 44 -196q24 -34 57 -34q37 0 63 45q37 64 37 182q0 137 -44 200
q-23 34 -57 34zM605 1064h-212l-49 367h310z" />
    <glyph glyph-name="upsilontonos" unicode="&#x3cd;" horiz-adv-x="1023" vert-adv-y="2457" 
d="M82 956h355v-539q0 -82 15 -110q16 -31 60 -31q43 0 59 31q15 28 15 110v539h355v-587q0 -149 -64 -231q-67 -86 -188 -128q-83 -30 -177 -30q-168 0 -292 88q-78 55 -109 129q-29 70 -29 172v587zM617 1064h-212l-49 367h310z" />
    <glyph glyph-name="omegatonos" unicode="&#x3ce;" horiz-adv-x="1327" vert-adv-y="2457" 
d="M813 681q-6 -159 -6 -201q0 -233 62 -233q27 0 44 54q24 78 24 212q0 197 -83 343q-44 77 -87 100h362q54 -69 83 -136q61 -137 61 -332q0 -232 -88 -366q-93 -143 -279 -143q-134 0 -210 85q-20 23 -32 53q-11 -30 -32 -53q-77 -85 -210 -85q-186 0 -279 143
q-88 134 -88 366q0 222 79 370q25 46 65 98h362q-43 -23 -87 -100q-45 -78 -64 -156q-19 -79 -19 -190q0 -145 29 -221q16 -42 39 -42q63 0 63 233q0 37 -8 201h299zM770 1064h-212l-49 367h310z" />
    <glyph glyph-name="theta1" unicode="&#x3d1;" horiz-adv-x="971" vert-adv-y="2457" 
d="M911 671q-19 -282 -70 -424q-48 -132 -130 -194q-97 -73 -242 -73q-183 0 -280 105q-141 152 -155 520h364q0 -136 15 -250q7 -64 21 -88q10 -19 36 -19q27 0 39 28q16 36 31 229q5 72 8 166h-48q-149 0 -199 8q-125 21 -181 99q-64 88 -64 240q0 167 79 307
q46 82 128 132q85 51 193 51q209 0 329 -219q64 -117 96 -333h111v-285h-81zM542 956q-12 138 -28 189q-20 65 -59 65q-79 0 -79 -151q0 -54 19 -81q11 -15 23 -19q11 -3 41 -3h83z" />
    <glyph glyph-name="Upsilon1" unicode="&#x3d2;" horiz-adv-x="1079" vert-adv-y="2457" 
d="M355 0v475q0 274 -103 432q-86 131 -252 199l146 259q209 -79 320 -278q46 -83 73 -219q32 153 93 250q111 175 301 247l146 -259q-186 -76 -273 -235q-82 -149 -82 -396v-475h-369z" />
    <glyph glyph-name="phi1" unicode="&#x3d5;" horiz-adv-x="1352" vert-adv-y="2457" 
d="M506 1322h341v-346q110 -5 182 -35q158 -66 224 -225q45 -110 45 -247q0 -218 -118 -350q-118 -131 -333 -139v-407h-341v407h-20q-187 2 -306 131q-125 136 -125 364q0 165 72 288q120 207 379 213v346zM847 234q27 3 44 16q77 60 77 228q0 166 -76 228q-16 12 -45 15
v-487zM506 721q-30 -4 -44 -15q-76 -63 -76 -228q0 -142 56 -209q27 -32 64 -35v487z" />
    <glyph glyph-name="afii10023" unicode="&#x401;" horiz-adv-x="842" vert-adv-y="2457" 
d="M96 0v1365h685v-321h-316v-199h284v-309h-284v-208h316v-328h-685zM641 1772q62 0 106 -44q43 -43 43 -106q0 -59 -43 -103t-105 -44q-63 0 -106 45q-43 44 -43 105q0 63 44 105q45 42 104 42zM235 1771q60 0 103 -41q45 -44 45 -107q0 -59 -43 -104q-43 -44 -105 -44
t-105 44q-43 43 -43 104q0 62 42 104q44 44 106 44z" />
    <glyph glyph-name="afii10051" unicode="&#x402;" horiz-adv-x="1170" vert-adv-y="2457" 
d="M549 753q83 125 245 125q152 0 230 -108q56 -78 56 -216v-973h-355v827q0 69 -20 91q-24 26 -68 26q-54 0 -74 -45q-10 -23 -13 -73l-1 -23v-384h-369v1037h-180v328h784v-328h-235v-284z" />
    <glyph glyph-name="afii10052" unicode="&#x403;" horiz-adv-x="796" vert-adv-y="2457" 
d="M742 1365v-328h-277v-1037h-369v1365h646zM686 1783l-173 -309h-205l89 309h289z" />
    <glyph glyph-name="afii10053" unicode="&#x404;" horiz-adv-x="1003" vert-adv-y="2457" 
d="M798 508h-340q23 -63 48 -94q75 -93 243 -93q60 0 92.5 10t91.5 46v-377q-102 -13 -184 -13q-242 0 -386 86q-155 91 -234 272q-68 158 -68 357q0 234 92 404q149 272 559 272q44 0 125 -8l67 -5v-343q-106 25 -175 25q-138 0 -217 -104q-35 -46 -54 -114h340v-321z" />
    <glyph glyph-name="afii10054" unicode="&#x405;" horiz-adv-x="827" vert-adv-y="2457" 
d="M66 34v428q109 -149 235 -149q48 0 80 27q28 24 28 62q0 47 -45 89q-10 9 -80 64q-86 67 -133 126q-90 114 -90 261q0 129 68 246q118 202 347 202q131 0 265 -70v-418q-34 54 -77 90q-72 61 -139 61q-52 0 -81 -37q-17 -21 -17 -45q0 -42 51 -89q11 -11 83 -63
q73 -52 126 -114q92 -105 92 -266q0 -204 -124 -334t-310 -130q-137 0 -279 59z" />
    <glyph glyph-name="afii10055" unicode="&#x406;" horiz-adv-x="560" vert-adv-y="2457" 
d="M465 0h-369v1365h369v-1365z" />
    <glyph glyph-name="afii10056" unicode="&#x407;" horiz-adv-x="560" vert-adv-y="2457" 
d="M465 0h-369v1365h369v-1365zM453 1735q54 0 92 -38t38 -93q0 -52 -38 -91q-37 -38 -91 -38q-55 0 -94 39q-37 38 -37 92q0 55 39 92t91 37zM109 1735q53 0 90 -36q40 -38 40 -94q0 -52 -38 -91t-92 -39t-92 38t-38 92t37 91q39 39 93 39z" />
    <glyph glyph-name="afii10057" unicode="&#x408;" horiz-adv-x="725" vert-adv-y="2457" 
d="M0 21v381q63 -82 148 -82q113 0 113 170v875h369v-948q0 -137 -26 -208q-84 -234 -363 -234q-112 0 -241 46z" />
    <glyph glyph-name="afii10058" unicode="&#x409;" horiz-adv-x="1618" vert-adv-y="2457" 
d="M651 0v1032h-100l-83 -590q-19 -136 -40 -191q-54 -140 -159 -198q-98 -53 -298 -53v333q48 2 74 22q53 39 68 148l121 862h786v-447q174 0 293 -52q129 -56 195 -188q49 -98 49 -226q0 -148 -64 -259q-84 -144 -266 -182q-53 -11 -207 -11h-369zM1020 306h17q53 0 93 29
q54 39 54 124q0 74 -42 120q-38 41 -96 41q-8 0 -26 -2v-312z" />
    <glyph glyph-name="afii10059" unicode="&#x40a;" horiz-adv-x="1607" vert-adv-y="2457" 
d="M641 0v549h-176v-549h-369v1365h369v-483h176v483h369v-447q174 0 293 -52q129 -56 195 -188q49 -98 49 -225q0 -149 -64 -260q-84 -144 -266 -182q-53 -11 -207 -11h-369zM1010 306h17q53 0 93 29q54 39 54 124q0 73 -42 120q-37 41 -96 41q-9 0 -26 -2v-312z" />
    <glyph glyph-name="afii10060" unicode="&#x40b;" horiz-adv-x="1170" vert-adv-y="2457" 
d="M549 753q83 125 245 125q152 0 230 -108q56 -78 56 -216v-554h-355v408q0 69 -20 91q-24 26 -68 26q-54 0 -74 -45q-10 -23 -13 -73l-1 -23v-384h-369v1037h-180v328h784v-328h-235v-284z" />
    <glyph glyph-name="afii10061" unicode="&#x40c;" horiz-adv-x="1108" vert-adv-y="2457" 
d="M1098 0h-398l-245 629l10 -629h-369v1365h369l-10 -585l217 585h390l-295 -659zM832 1783l-173 -309h-205l89 309h289z" />
    <glyph glyph-name="afii10062" unicode="&#x40e;" horiz-adv-x="990" vert-adv-y="2457" 
d="M489 0h-368l226 528l-347 837h384l71 -269q34 -118 55 -215q35 155 54 217l79 267h374zM200 1774h142q22 -52 48 -74q45 -35 138 -35t137 35q27 22 48 74h143q-11 -119 -81 -204q-82 -100 -249 -100q-171 0 -260 120q-56 76 -66 184z" />
    <glyph glyph-name="afii10145" unicode="&#x40f;" horiz-adv-x="1105" vert-adv-y="2457" 
d="M378 0h-282v1365h369v-1032h175v1032h369v-1365h-283v-258h-348v258z" />
    <glyph glyph-name="afii10017" unicode="&#x410;" horiz-adv-x="1090" vert-adv-y="2457" 
d="M1079 0h-381l-27 173h-249l-30 -173h-381l328 1365h451zM628 465l-24 159q-19 123 -46 415q-9 -72 -14 -108q-9 -78 -23 -171l-11 -80l-38 -215h156z" />
    <glyph glyph-name="afii10018" unicode="&#x411;" horiz-adv-x="1062" vert-adv-y="2457" 
d="M465 1037l1 -120q154 -5 229 -28q161 -48 243 -184q64 -105 64 -253t-64 -259q-84 -144 -266 -182q-53 -11 -207 -11h-369v1365h800v-328h-431zM465 306h17q53 0 93 29q54 38 54 124q0 74 -42 119q-37 41 -96 41q-10 0 -26 -1v-312z" />
    <glyph glyph-name="afii10019" unicode="&#x412;" horiz-adv-x="1085" vert-adv-y="2457" 
d="M96 0v1365h429q240 0 356 -107q118 -109 118 -281q0 -150 -104 -229q-52 -40 -150 -48q130 -19 191 -74q89 -82 89 -235q0 -103 -47 -194q-101 -197 -365 -197h-517zM465 296q21 -1 32 -1q56 0 95 24q56 35 56 109q0 60 -41 95q-40 35 -113 35q-11 0 -29 -1v-261z
M465 834h24q64 0 101 28q43 33 43 89q0 57 -36 90q-31 29 -94 29q-12 0 -38 -1v-235z" />
    <glyph glyph-name="afii10020" unicode="&#x413;" horiz-adv-x="796" vert-adv-y="2457" 
d="M742 1365v-328h-277v-1037h-369v1365h646z" />
    <glyph glyph-name="afii10021" unicode="&#x414;" horiz-adv-x="1232" vert-adv-y="2457" 
d="M858 0h-530v-258h-348v591h122q38 90 58 234l112 798h797v-1032h137v-591h-348v258zM700 333v699h-107l-78 -559q-14 -98 -24 -140h209z" />
    <glyph glyph-name="afii10022" unicode="&#x415;" horiz-adv-x="842" vert-adv-y="2457" 
d="M96 0v1365h685v-321h-316v-199h284v-309h-284v-208h316v-328h-685z" />
    <glyph glyph-name="afii10024" unicode="&#x416;" horiz-adv-x="1643" vert-adv-y="2457" 
d="M1632 0h-398l-244 629l9 -629h-355l9 629l-245 -629h-397l331 706l-295 659h389l217 -585l-9 585h355l-9 -585l217 585h389l-295 -659z" />
    <glyph glyph-name="afii10025" unicode="&#x417;" horiz-adv-x="914" vert-adv-y="2457" 
d="M671 686q189 -96 189 -334q0 -182 -126 -276q-91 -68 -203 -87q-85 -14 -179 -14q-135 0 -226 26q-20 6 -73 27v365q49 -31 82 -44q69 -29 151 -29q100 0 154 39q40 29 40 66q0 60 -71 88q-59 23 -143 23h-58v293h58q112 0 176 45q38 26 38 66q0 54 -56 84
q-47 25 -132 25q-97 0 -167 -37q-20 -11 -47 -30v374q87 34 216 34q556 0 556 -374q0 -164 -91 -262q-29 -30 -88 -68z" />
    <glyph glyph-name="afii10026" unicode="&#x418;" horiz-adv-x="1152" vert-adv-y="2457" 
d="M96 1365h352v-349q0 -157 -23 -437q36 125 94 284l186 502h352v-1365h-352v307q0 170 42 516q-84 -264 -115 -344l-184 -479h-352v1365z" />
    <glyph glyph-name="afii10027" unicode="&#x419;" horiz-adv-x="1152" vert-adv-y="2457" 
d="M96 1365h352v-349q0 -157 -23 -437q36 125 94 284l186 502h352v-1365h-352v307q0 170 42 516q-84 -264 -115 -344l-184 -479h-352v1365zM268 1774h142q22 -52 48 -74q45 -35 138 -35t137 35q27 22 48 74h143q-11 -119 -81 -204q-82 -100 -249 -100q-171 0 -260 120
q-56 76 -66 184z" />
    <glyph glyph-name="afii10028" unicode="&#x41a;" horiz-adv-x="1108" vert-adv-y="2457" 
d="M1098 0h-398l-245 629l10 -629h-369v1365h369l-10 -585l217 585h390l-295 -659z" />
    <glyph glyph-name="afii10029" unicode="&#x41b;" horiz-adv-x="1116" vert-adv-y="2457" 
d="M1020 1365v-1365h-369v1032h-100l-83 -590q-19 -136 -40 -191q-54 -140 -159 -198q-98 -53 -298 -53v333q48 2 74 22q53 39 68 148l121 862h786z" />
    <glyph glyph-name="afii10030" unicode="&#x41c;" horiz-adv-x="1569" vert-adv-y="2457" 
d="M1500 0h-385l-27 623q-2 51 -4 124l-4 124q-15 -144 -38 -263l-116 -608h-300l-106 656q-10 63 -25 215q-1 -78 -4 -199l-3 -104l-31 -568h-396l159 1365h459l77 -460q19 -113 31 -267q13 131 32 233l93 494h456z" />
    <glyph glyph-name="afii10031" unicode="&#x41d;" horiz-adv-x="1105" vert-adv-y="2457" 
d="M1009 0h-369v549h-175v-549h-369v1365h369v-483h175v483h369v-1365z" />
    <glyph glyph-name="afii10032" unicode="&#x41e;" horiz-adv-x="1161" vert-adv-y="2457" 
d="M584 1390q165 0 291 -104q224 -185 224 -608q0 -331 -156 -527q-66 -83 -159 -130q-93 -46 -196 -46q-151 0 -282 95q-245 179 -245 623q0 337 161 523q150 174 362 174zM584 1046q-57 0 -93 -74q-48 -96 -48 -289q0 -212 51 -303q33 -60 84 -60q50 0 87 63q51 86 51 292
q0 371 -132 371z" />
    <glyph glyph-name="afii10033" unicode="&#x41f;" horiz-adv-x="1105" vert-adv-y="2457" 
d="M1009 0h-369v1032h-175v-1032h-369v1365h913v-1365z" />
    <glyph glyph-name="afii10034" unicode="&#x420;" horiz-adv-x="1035" vert-adv-y="2457" 
d="M465 0h-369v1365h357q267 0 397 -109q152 -128 152 -356q0 -149 -64 -259q-85 -147 -266 -182q-61 -12 -149 -12q-17 0 -58 1v-448zM465 754q12 -1 17 -1q53 0 93 29q54 38 54 124q0 74 -42 120q-37 41 -96 41q-10 0 -26 -1v-312z" />
    <glyph glyph-name="afii10035" unicode="&#x421;" horiz-adv-x="912" vert-adv-y="2457" 
d="M863 420l-21 -395q-117 -50 -221 -50q-257 0 -417 207q-143 184 -143 495q0 339 179 532q167 181 425 181q95 0 182 -34v-390q-31 31 -54 47q-51 36 -115 36q-116 0 -177 -97q-63 -100 -63 -269q0 -153 54 -247q62 -105 179 -105q74 0 140 46q20 14 52 43z" />
    <glyph glyph-name="afii10036" unicode="&#x422;" horiz-adv-x="784" vert-adv-y="2457" 
d="M572 0h-369v1037h-203v328h784v-328h-212v-1037z" />
    <glyph glyph-name="afii10037" unicode="&#x423;" horiz-adv-x="990" vert-adv-y="2457" 
d="M489 0h-368l226 528l-347 837h384l71 -269q34 -118 55 -215q35 155 54 217l79 267h374z" />
    <glyph glyph-name="afii10038" unicode="&#x424;" horiz-adv-x="1635" vert-adv-y="2457" 
d="M645 -109v214q-216 15 -371 113q-213 134 -213 465q0 329 215 464q156 98 369 112v214h344v-214q584 -46 584 -574q0 -335 -214 -468q-154 -95 -370 -112v-214h-344zM989 387q215 32 215 299q0 175 -87 240q-50 38 -128 50v-589zM645 387v589q-79 -12 -129 -50
q-86 -67 -86 -239q0 -179 93 -251q49 -38 122 -49z" />
    <glyph glyph-name="afii10039" unicode="&#x425;" horiz-adv-x="1059" vert-adv-y="2457" 
d="M1059 0h-410l-68 195l-19 59q-23 71 -34 112q-55 -178 -59 -187l-67 -179h-402l332 708l-314 657h411l61 -185l12 -39l30 -98q20 92 33 135l56 187h414l-312 -657z" />
    <glyph glyph-name="afii10040" unicode="&#x426;" horiz-adv-x="1173" vert-adv-y="2457" 
d="M798 0h-702v1365h369v-1032h175v1032h369v-1032h137v-591h-348v258z" />
    <glyph glyph-name="afii10041" unicode="&#x427;" horiz-adv-x="1077" vert-adv-y="2457" 
d="M626 379q-58 -2 -83 -2q-221 0 -350 120q-79 73 -104 167q-21 78 -21 189v512h355v-479l-1 -64q0 -48 39 -81q29 -26 77 -26q31 0 88 6v644h355v-1365h-355v379z" />
    <glyph glyph-name="afii10042" unicode="&#x428;" horiz-adv-x="1581" vert-adv-y="2457" 
d="M1486 1365v-1365h-1390v1365h355v-1032h162v1032h355v-1032h163v1032h355z" />
    <glyph glyph-name="afii10043" unicode="&#x429;" horiz-adv-x="1649" vert-adv-y="2457" 
d="M1287 0h-1191v1365h355v-1032h162v1032h355v-1032h163v1032h355v-1032h136v-591h-335v258z" />
    <glyph glyph-name="afii10044" unicode="&#x42a;" horiz-adv-x="1263" vert-adv-y="2457" 
d="M27 1365h638v-448q174 0 293 -51q129 -56 195 -189q49 -98 49 -225q0 -148 -64 -259q-84 -144 -266 -182q-53 -11 -207 -11h-369v1037h-269v328zM665 306h17q53 0 93 29q54 38 54 124q0 74 -42 119q-37 41 -96 41q-10 0 -26 -1v-312z" />
    <glyph glyph-name="afii10045" unicode="&#x42b;" horiz-adv-x="1595" vert-adv-y="2457" 
d="M96 0v1365h369v-448q174 0 293 -51q129 -56 195 -188q49 -98 49 -226q0 -148 -64 -259q-84 -144 -266 -182q-53 -11 -207 -11h-369zM465 306h17q53 0 93 29q54 38 54 124q0 74 -42 120q-38 41 -96 41q-8 0 -26 -2v-312zM1500 0h-369v1365h369v-1365z" />
    <glyph glyph-name="afii10046" unicode="&#x42c;" horiz-adv-x="1062" vert-adv-y="2457" 
d="M96 0v1365h369v-448q174 0 293 -51q129 -56 195 -188q49 -98 49 -226q0 -148 -64 -259q-84 -144 -266 -182q-53 -11 -207 -11h-369zM465 306h17q53 0 93 29q54 38 54 124q0 74 -42 120q-38 41 -96 41q-8 0 -26 -2v-312z" />
    <glyph glyph-name="afii10047" unicode="&#x42d;" horiz-adv-x="1003" vert-adv-y="2457" 
d="M545 508h-340v321h340q-19 68 -54 114q-79 104 -218 104q-68 0 -174 -25v343q27 2 117 10q31 3 78 3q303 0 459 -146q93 -87 139 -224q50 -146 50 -306q0 -326 -171 -521q-99 -112 -234 -155q-126 -39 -284 -39q-81 0 -183 13v377q44 -28 69 -38q40 -18 116 -18
q167 0 242 93q25 31 48 94z" />
    <glyph glyph-name="afii10048" unicode="&#x42e;" horiz-adv-x="1684" vert-adv-y="2457" 
d="M594 549h-129v-549h-369v1365h369v-483h135q28 152 86 249q75 127 189 195q106 64 234 64q165 0 290 -103q224 -186 224 -599q0 -340 -156 -537q-65 -83 -159 -130q-93 -46 -196 -46q-174 0 -314 122q-168 144 -204 452zM1109 1046q-57 0 -93 -74q-48 -96 -48 -288
q0 -213 51 -303q33 -60 84 -60q50 0 87 63q51 86 51 292q0 370 -132 370z" />
    <glyph glyph-name="afii10049" unicode="&#x42f;" horiz-adv-x="1080" vert-adv-y="2457" 
d="M14 0l274 568q-211 94 -211 342q0 145 70 259q81 129 241 171q93 25 219 25h378v-1365h-369v386q0 30 5 182l-56 -158l-27 -75l-125 -335h-399zM616 734v324q-52 0 -80 -9q-93 -30 -93 -144q0 -72 43 -124q39 -48 105 -48q10 0 25 1z" />
    <glyph glyph-name="afii10065" unicode="&#x430;" horiz-adv-x="1017" vert-adv-y="2457" 
d="M936 0h-355l3 45q3 63 9 116q-36 -71 -68 -104q-73 -77 -179 -77q-143 0 -219 148q-72 139 -72 356q0 229 84 364q79 128 216 128q106 0 176 -84q24 -29 54 -87q-4 42 -8 109l-2 42h361v-956zM501 684q-49 0 -69 -59t-20 -179q0 -173 81 -173q84 0 84 218q0 87 -11 131
q-14 62 -65 62z" />
    <glyph glyph-name="afii10066" unicode="&#x431;" horiz-adv-x="998" vert-adv-y="2457" 
d="M820 1523v-301q-54 -13 -213 -13q-94 -1 -107 -4q-42 -10 -58 -95q-8 -48 -12 -148q47 15 101 15q207 0 316 -159q97 -140 97 -348q0 -217 -114 -351q-120 -140 -334 -140q-277 0 -385 226q-56 119 -56 433q0 505 113 702q68 119 213 136q52 6 212 8q123 1 227 39z
M499 709q-37 0 -63 -45q-37 -64 -37 -186q0 -133 44 -197q23 -34 57 -34q37 0 63 45q37 65 37 183q0 136 -44 200q-23 34 -57 34z" />
    <glyph glyph-name="afii10067" unicode="&#x432;" horiz-adv-x="959" vert-adv-y="2457" 
d="M82 0v956h492q169 0 251 -68q83 -69 83 -185q0 -114 -75 -175q-38 -32 -101 -38q200 -42 200 -230q0 -120 -82 -194q-73 -66 -196 -66h-572zM416 238q40 -1 53 -1q53 0 74 9q47 20 47 73q0 62 -62 75q-19 4 -112 4v-160zM416 576q34 -1 46 -1q57 0 77 10q37 20 37 61
q0 73 -83 73q-28 0 -77 -1v-142z" />
    <glyph glyph-name="afii10068" unicode="&#x433;" horiz-adv-x="658" vert-adv-y="2457" 
d="M631 956v-285h-194v-671h-355v956h549z" />
    <glyph glyph-name="afii10069" unicode="&#x434;" horiz-adv-x="1180" vert-adv-y="2457" 
d="M814 0h-463v-258h-339v543h99q39 60 68 206l93 465h744v-671h137v-543h-339v258zM661 285v386h-105l-43 -221q-21 -105 -42 -165h190z" />
    <glyph glyph-name="afii10070" unicode="&#x435;" horiz-adv-x="985" vert-adv-y="2457" 
d="M571 324l347 -7q-25 -112 -80 -183q-120 -155 -346 -155q-199 0 -317 123q-120 126 -120 359q0 208 106 346q129 168 341 168q143 0 252 -82q177 -134 177 -427q0 -23 -1 -63h-521q8 -147 83 -147q60 0 79 68zM579 594q-2 42 -14 69q-22 52 -69 52q-77 0 -82 -121h165z
" />
    <glyph glyph-name="afii10072" unicode="&#x436;" horiz-adv-x="1493" vert-adv-y="2457" 
d="M1086 0l-137 371q-10 26 -32 109v-480h-341v480q-22 -83 -32 -109l-137 -371h-407l259 517l-235 439h383l116 -282q31 -75 53 -149v431h341v-431q22 74 53 149l116 282h383l-235 -439l259 -517h-407z" />
    <glyph glyph-name="afii10073" unicode="&#x437;" horiz-adv-x="828" vert-adv-y="2457" 
d="M125 375v206q90 -2 117 -2q105 0 137 29q15 14 15 37q0 68 -150 68q-56 0 -154 -9v252q170 16 252 16q201 0 305 -80q54 -41 79 -113q17 -50 17 -103q0 -136 -96 -198q116 -64 116 -201q0 -81 -41 -150q-86 -148 -403 -148q-103 0 -245 21v252q116 -9 169 -9
q163 0 163 66q0 67 -145 67h-89z" />
    <glyph glyph-name="afii10074" unicode="&#x438;" horiz-adv-x="1056" vert-adv-y="2457" 
d="M82 956h356v-162q0 -103 -16 -307l196 469h356v-956h-356v133q0 115 29 361l-209 -494h-356v956z" />
    <glyph glyph-name="afii10075" unicode="&#x439;" horiz-adv-x="1056" vert-adv-y="2457" 
d="M82 956h356v-162q0 -103 -16 -307l196 469h356v-956h-356v133q0 115 29 361l-209 -494h-356v956zM215 1390h142q21 -53 48 -75q46 -35 136 -35q84 0 126 35q28 25 48 75h142q-29 -305 -319 -305q-166 0 -256 120q-58 76 -67 185z" />
    <glyph glyph-name="afii10076" unicode="&#x43a;" horiz-adv-x="1013" vert-adv-y="2457" 
d="M606 0l-137 371q-10 26 -32 109v-480h-355v956h355v-431q22 74 53 149l116 282h383l-235 -439l259 -517h-407z" />
    <glyph glyph-name="afii10077" unicode="&#x43b;" horiz-adv-x="1037" vert-adv-y="2457" 
d="M956 956v-956h-355v671h-99l-35 -255q-31 -218 -94 -297q-86 -107 -275 -117q-28 -2 -118 -2v286q62 2 94 39q29 34 45 150l68 481h769z" />
    <glyph glyph-name="afii10078" unicode="&#x43c;" horiz-adv-x="1278" vert-adv-y="2457" 
d="M639 439l1 8q9 68 24 163l52 346h428l93 -956h-337l-21 436q-5 86 -8 174l-106 -610h-252l-106 610q-3 -88 -8 -174l-21 -436h-337l93 956h428l52 -346q15 -95 24 -163z" />
    <glyph glyph-name="afii10079" unicode="&#x43d;" horiz-adv-x="1005" vert-adv-y="2457" 
d="M568 343h-131v-343h-355v956h355v-328h131v328h355v-956h-355v343z" />
    <glyph glyph-name="afii10080" unicode="&#x43e;" horiz-adv-x="998" vert-adv-y="2457" 
d="M496 976q232 0 351 -165q97 -133 97 -348q0 -210 -114 -344q-120 -140 -336 -140q-203 0 -318 132q-121 139 -121 363q0 217 116 358q120 144 325 144zM499 708q-37 0 -63 -45q-37 -64 -37 -186q0 -132 44 -196q24 -34 57 -34q37 0 63 45q37 64 37 182q0 137 -44 200
q-23 34 -57 34z" />
    <glyph glyph-name="afii10081" unicode="&#x43f;" horiz-adv-x="1005" vert-adv-y="2457" 
d="M568 671h-131v-671h-355v956h841v-956h-355v671z" />
    <glyph glyph-name="afii10082" unicode="&#x440;" horiz-adv-x="1013" vert-adv-y="2457" 
d="M437 -427h-355v1383h355l-8 -135q35 66 67 96q62 59 152 59q138 0 221 -132q90 -144 90 -367q0 -245 -98 -388q-34 -51 -93 -81q-53 -28 -113 -28q-84 0 -149 55q-36 30 -77 95q8 -103 8 -159v-398zM508 684q-82 0 -82 -201q0 -118 31 -170q20 -34 49 -34q33 0 56 41
q30 53 30 167q0 113 -32 163q-22 34 -52 34z" />
    <glyph glyph-name="afii10083" unicode="&#x441;" horiz-adv-x="620" vert-adv-y="2457" 
d="M579 312v-327q-63 -6 -96 -6q-183 0 -293 124q-62 70 -98 171q-37 104 -37 209q0 152 74 278q72 124 202 180q83 36 177 36q22 0 71 -4v-311q-157 -11 -157 -172q0 -66 35 -119q39 -60 98 -60q12 0 24 1z" />
    <glyph glyph-name="afii10084" unicode="&#x442;" horiz-adv-x="792" vert-adv-y="2457" 
d="M574 0h-355v671h-205v285h765v-285h-205v-671z" />
    <glyph glyph-name="afii10085" unicode="&#x443;" horiz-adv-x="934" vert-adv-y="2457" 
d="M495 -401h-366l155 441l-284 916h356l69 -274q28 -113 43 -268q37 252 58 335l53 207h355z" />
    <glyph glyph-name="afii10086" unicode="&#x444;" horiz-adv-x="1409" vert-adv-y="2457" 
d="M869 -427h-329v418q-19 -1 -38 -1q-165 0 -271 79q-87 66 -133 177q-43 102 -43 228q0 162 70 284q120 208 379 208q16 0 36 -1v357h329v-357q22 1 38 1q170 0 280 -92q88 -73 131 -190q36 -96 36 -210q0 -172 -77 -295q-117 -189 -365 -189q-15 0 -43 1v-418zM540 713
q-17 9 -32 9q-57 0 -90 -71q-32 -71 -32 -173t32 -173t90 -71q16 0 32 9v470zM869 713v-470q17 -9 32 -9q58 0 90 71t32 173t-32 173q-33 71 -90 71q-15 0 -32 -9z" />
    <glyph glyph-name="afii10087" unicode="&#x445;" horiz-adv-x="987" vert-adv-y="2457" 
d="M987 0h-411l-34 88q-26 68 -45 138q-38 -99 -57 -137l-42 -89h-398l291 492l-275 464h405l37 -107q6 -17 31 -99q14 41 38 103l40 103h393l-282 -456z" />
    <glyph glyph-name="afii10088" unicode="&#x446;" horiz-adv-x="1087" vert-adv-y="2457" 
d="M721 0h-639v956h355v-671h131v671h355v-671h137v-543h-339v258z" />
    <glyph glyph-name="afii10089" unicode="&#x447;" horiz-adv-x="949" vert-adv-y="2457" 
d="M525 227q-65 -2 -88 -2q-156 0 -242 52q-82 48 -114 122q-26 58 -26 159v398h341v-320q1 -68 8 -83q21 -37 69 -37q14 0 52 4v436h342v-956h-342v227z" />
    <glyph glyph-name="afii10090" unicode="&#x448;" horiz-adv-x="1409" vert-adv-y="2457" 
d="M1327 956v-956h-1245v956h348v-671h104v671h341v-671h104v671h348z" />
    <glyph glyph-name="afii10091" unicode="&#x449;" horiz-adv-x="1491" vert-adv-y="2457" 
d="M1125 0h-1043v956h348v-671h104v671h341v-671h104v671h348v-671h137v-543h-339v258z" />
    <glyph glyph-name="afii10092" unicode="&#x44a;" horiz-adv-x="1057" vert-adv-y="2457" 
d="M191 0v671h-177v285h518v-293h110q189 0 279 -75q108 -89 108 -249q0 -107 -48 -192q-62 -110 -194 -135q-63 -12 -176 -12h-420zM532 238h73q108 0 108 93q0 94 -108 94h-73v-187z" />
    <glyph glyph-name="afii10093" unicode="&#x44b;" horiz-adv-x="1421" vert-adv-y="2457" 
d="M82 0v956h341v-293h110q189 0 279 -75q108 -89 108 -249q0 -107 -48 -192q-62 -110 -194 -135q-63 -12 -176 -12h-420zM423 238h73q108 0 108 93q0 94 -108 94h-73v-187zM1339 0h-341v956h341v-956z" />
    <glyph glyph-name="afii10094" unicode="&#x44c;" horiz-adv-x="949" vert-adv-y="2457" 
d="M82 0v956h341v-293h110q189 0 279 -75q108 -89 108 -249q0 -107 -48 -192q-62 -110 -194 -135q-63 -12 -176 -12h-420zM423 238h73q108 0 108 93q0 94 -108 94h-73v-187z" />
    <glyph glyph-name="afii10095" unicode="&#x44d;" horiz-adv-x="830" vert-adv-y="2457" 
d="M403 351h-243v242h245q-21 61 -70 95q-40 29 -144 29q-42 0 -104 -13v252q95 14 164 14q177 0 289 -55q120 -58 179 -179q56 -112 56 -261q0 -178 -76 -300q-124 -196 -449 -196q-81 0 -187 21v252q72 -20 121 -20q118 0 163 38q36 31 56 81z" />
    <glyph glyph-name="afii10096" unicode="&#x44e;" horiz-adv-x="1471" vert-adv-y="2457" 
d="M540 343h-103v-343h-355v956h355v-328h108q18 75 52 135q120 213 373 213q232 0 350 -165q97 -134 97 -342q0 -216 -114 -350q-120 -140 -336 -140q-269 0 -381 227q-30 61 -46 137zM972 708q-37 0 -63 -45q-37 -64 -37 -186q0 -133 44 -196q24 -34 57 -34q37 0 63 45
q37 64 37 182q0 137 -44 200q-23 34 -57 34z" />
    <glyph glyph-name="afii10097" unicode="&#x44f;" horiz-adv-x="958" vert-adv-y="2457" 
d="M28 0l191 370q-147 73 -147 263q0 183 129 268q84 55 242 55h433v-956h-341v232q0 16 3 99l-31 -74q-22 -51 -26 -61l-80 -196h-373zM535 526v168h-11q-110 0 -110 -80q0 -38 30 -64q28 -25 72 -25q7 0 19 1z" />
    <glyph glyph-name="afii10071" unicode="&#x451;" horiz-adv-x="985" vert-adv-y="2457" 
d="M571 324l347 -7q-25 -112 -80 -183q-120 -155 -346 -155q-199 0 -317 123q-120 126 -120 359q0 208 106 346q129 168 341 168q143 0 252 -82q177 -134 177 -427q0 -23 -1 -63h-521q8 -147 83 -147q60 0 79 68zM579 594q-2 42 -14 69q-22 52 -69 52q-77 0 -82 -121h165z
M296 1381q61 0 104 -42q45 -44 45 -108q0 -58 -42 -102q-43 -44 -105 -44t-106 44q-43 44 -43 105q0 62 43 104q43 43 104 43zM689 1381q61 0 104 -42q45 -44 45 -108q0 -59 -42 -102q-43 -44 -105 -44t-106 44q-43 44 -43 105q0 62 43 104q44 43 104 43z" />
    <glyph glyph-name="afii10099" unicode="&#x452;" horiz-adv-x="1019" vert-adv-y="2457" 
d="M0 1099v198h96v197h355v-197h191v-198h-191v-139l-3 -73q-2 -67 -5 -113q86 203 250 203q82 0 148 -55q96 -79 96 -270v-1079h-355v933q0 67 -13 91q-13 26 -44 26q-74 0 -74 -141v-482h-355v1099h-96z" />
    <glyph glyph-name="afii10100" unicode="&#x453;" horiz-adv-x="658" vert-adv-y="2457" 
d="M631 956v-285h-194v-671h-355v956h549zM236 1086l97 303h286l-180 -303h-203z" />
    <glyph glyph-name="afii10101" unicode="&#x454;" horiz-adv-x="830" vert-adv-y="2457" 
d="M427 351q23 -58 67 -90q42 -29 154 -29q47 0 119 20v-252q-106 -21 -189 -21q-233 0 -361 101q-84 66 -123 172q-39 105 -39 223q0 206 101 334q128 161 423 161q68 0 164 -14v-252q-62 13 -105 13q-110 0 -155 -38q-40 -33 -58 -86h245v-242h-243z" />
    <glyph glyph-name="afii10102" unicode="&#x455;" horiz-adv-x="808" vert-adv-y="2457" 
d="M48 79l129 265q95 -99 179 -99q39 0 58 23q10 12 10 26q0 44 -92 76q-98 34 -156 80q-95 76 -95 200q0 142 110 231q117 95 282 95q135 0 284 -77l-121 -260q-88 84 -145 84q-25 0 -41 -14q-15 -13 -15 -31q0 -49 106 -91q113 -44 154 -83q77 -71 77 -188
q0 -136 -99 -234q-103 -102 -283 -102q-126 0 -247 52q-35 16 -95 47z" />
    <glyph glyph-name="afii10103" unicode="&#x456;" horiz-adv-x="519" vert-adv-y="2457" 
d="M437 0h-355v956h355v-956zM259 1461q85 0 146 -59q62 -60 62 -150q0 -82 -59 -143q-61 -62 -148 -62q-85 0 -146 60q-61 61 -61 148q0 86 60 145q62 61 146 61z" />
    <glyph glyph-name="afii10104" unicode="&#x457;" horiz-adv-x="519" vert-adv-y="2457" 
d="M437 0h-355v956h355v-956zM424 1345q54 0 92 -38t38 -93q0 -53 -38 -91t-91 -38q-56 0 -94 39q-37 38 -37 92q0 55 39 92t91 37zM94 1345q53 0 90 -36q40 -38 40 -94q0 -52 -38 -91t-92 -39t-92 38t-38 92t37 91q39 39 93 39z" />
    <glyph glyph-name="afii10105" unicode="&#x458;" horiz-adv-x="519" vert-adv-y="2457" 
d="M437 -419h-354l-2 1375h356v-1375zM258 1461q85 0 146 -59q62 -60 62 -150q0 -82 -59 -143q-61 -62 -148 -62q-85 0 -146 60q-61 61 -61 148q0 86 60 145q62 61 146 61z" />
    <glyph glyph-name="afii10106" unicode="&#x459;" horiz-adv-x="1467" vert-adv-y="2457" 
d="M601 0v671h-99l-35 -256q-30 -217 -94 -296q-86 -107 -275 -117q-28 -2 -118 -2v285q62 3 94 40q29 33 45 149l68 482h755v-293h110q189 0 279 -75q108 -89 108 -249q0 -107 -48 -192q-62 -110 -194 -135q-63 -12 -176 -12h-420zM942 238h73q108 0 108 93q0 94 -108 94
h-73v-187z" />
    <glyph glyph-name="afii10107" unicode="&#x45a;" horiz-adv-x="1435" vert-adv-y="2457" 
d="M82 0v956h355v-293h131v293h341v-293h110q189 0 279 -75q108 -89 108 -249q0 -107 -48 -192q-62 -110 -194 -135q-63 -12 -176 -12h-420v378h-131v-378h-355zM909 238h73q108 0 108 93q0 50 -25 72q-27 22 -83 22h-73v-187z" />
    <glyph glyph-name="afii10108" unicode="&#x45b;" horiz-adv-x="1019" vert-adv-y="2457" 
d="M0 1099v198h96v197h355v-197h191v-198h-191v-139l-3 -73q-2 -67 -5 -113q86 203 250 203q82 0 148 -55q96 -79 96 -270v-652h-355v506q0 67 -13 91q-13 26 -44 26q-74 0 -74 -141v-482h-355v1099h-96z" />
    <glyph glyph-name="afii10109" unicode="&#x45c;" horiz-adv-x="1013" vert-adv-y="2457" 
d="M606 0l-137 371q-10 26 -32 109v-480h-355v956h355v-431q22 74 53 149l116 282h383l-235 -439l259 -517h-407zM397 1086l97 303h286l-180 -303h-203z" />
    <glyph glyph-name="afii10110" unicode="&#x45e;" horiz-adv-x="934" vert-adv-y="2457" 
d="M495 -401h-366l155 441l-284 916h356l69 -274q28 -113 43 -268q37 252 58 335l53 207h355zM146 1390h142q21 -53 48 -75q46 -35 136 -35q84 0 126 35q28 25 48 75h142q-29 -305 -319 -305q-166 0 -256 120q-58 76 -67 185z" />
    <glyph glyph-name="afii10193" unicode="&#x45f;" horiz-adv-x="1005" vert-adv-y="2457" 
d="M334 0h-252v956h355v-671h131v671h355v-956h-250v-258h-339v258z" />
    <glyph glyph-name="afii10050" unicode="&#x490;" horiz-adv-x="796" vert-adv-y="2457" 
d="M742 1521v-483h-277v-1038h-369v1365h277v156h369z" />
    <glyph glyph-name="afii10098" unicode="&#x491;" horiz-adv-x="658" vert-adv-y="2457" 
d="M276 956v109h355v-395h-194v-670h-355v956h194z" />
    <glyph glyph-name="uni0492" unicode="&#x492;" horiz-adv-x="795" vert-adv-y="2457" 
d="M465 845h240v-309h-240v-536h-369v536h-114v309h114v520h651v-321h-282v-199z" />
    <glyph glyph-name="uni0493" unicode="&#x493;" horiz-adv-x="658" vert-adv-y="2457" 
d="M82 540v416h549v-285h-194v-131h158v-191h-158v-349h-355v349h-80v191h80z" />
    <glyph glyph-name="uni0496" unicode="&#x496;" horiz-adv-x="1643" vert-adv-y="2457" 
d="M1334 0h-100l-244 629l9 -629h-355l9 629l-245 -629h-397l330 706l-294 659h389l217 -585l-9 585h355l-9 -585l217 585h389l-295 -659l174 -371h194v-590h-335v255z" />
    <glyph glyph-name="uni0497" unicode="&#x497;" horiz-adv-x="1493" vert-adv-y="2457" 
d="M1173 0h-87l-137 371q-11 28 -32 109v-480h-341v480q-22 -83 -32 -109l-137 -371h-407l259 517l-235 439h383l116 -282q31 -75 53 -148v430h341v-430q22 71 53 148l116 282h384l-235 -439l113 -226h164v-543h-339v252z" />
    <glyph glyph-name="uni049A" unicode="&#x49a;" horiz-adv-x="1108" vert-adv-y="2457" 
d="M792 0h-92l-245 629l10 -629h-369v1365h369l-10 -585l217 585h390l-295 -659l174 -368h186v-590h-335v252z" />
    <glyph glyph-name="uni049B" unicode="&#x49b;" horiz-adv-x="1013" vert-adv-y="2457" 
d="M870 283l2 2h165v-542h-339v257h-93l-136 371q-9 22 -32 109v-480h-355v956h355v-431q23 75 53 149l115 282h384l-235 -439z" />
    <glyph glyph-name="uni049C" unicode="&#x49c;" horiz-adv-x="1202" vert-adv-y="2457" 
d="M96 0v1365h369v-507h49v349h158v-350l137 510h355l-190 -621l239 -744h-367l-159 537h-15v-334h-158v320h-49v-525h-369z" />
    <glyph glyph-name="uni049D" unicode="&#x49d;" horiz-adv-x="1055" vert-adv-y="2457" 
d="M82 0v956h355v-323h45v216h148v-219l72 326h355l-128 -393l155 -563h-360l-52 313h-42v-200h-148v192h-45v-305h-355z" />
    <glyph glyph-name="uni04A2" unicode="&#x4a2;" horiz-adv-x="1105" vert-adv-y="2457" 
d="M856 0h-215v549h-176v-549h-369v1365h369v-483h176v483h369v-1030h181v-590h-335v255z" />
    <glyph glyph-name="uni04A3" unicode="&#x4a3;" horiz-adv-x="1005" vert-adv-y="2457" 
d="M923 285h164v-542h-339v257h-180v343h-131v-343h-355v956h355v-328h131v328h355v-671z" />
    <glyph glyph-name="uni04AE" unicode="&#x4ae;" horiz-adv-x="1025" vert-adv-y="2457" 
d="M708 0h-369v578l-339 787h384l67 -202q39 -118 63 -220q40 151 62 218l67 204h382l-317 -787v-578z" />
    <glyph glyph-name="uni04AF" unicode="&#x4af;" horiz-adv-x="934" vert-adv-y="2457" 
d="M281 -411l2 455l-283 912h356l69 -274q28 -113 43 -268q37 252 58 335l53 207h355l-298 -922v-445h-355z" />
    <glyph glyph-name="uni04B0" unicode="&#x4b0;" horiz-adv-x="1025" vert-adv-y="2457" 
d="M339 262h-222v191h222v125l-339 787h384l67 -202q39 -118 63 -220q40 151 62 218l67 204h381l-316 -787v-125h252v-191h-252v-262h-369v262z" />
    <glyph glyph-name="uni04B1" unicode="&#x4b1;" horiz-adv-x="934" vert-adv-y="2457" 
d="M635 -268v-159h-353v159h-190v191h190v116l-282 917h356l68 -274q28 -114 44 -269q37 252 58 336l53 207h354l-298 -917v-116h194v-191h-194z" />
    <glyph glyph-name="uni04B2" unicode="&#x4b2;" horiz-adv-x="1059" vert-adv-y="2457" 
d="M753 0h-104l-68 195l-19 59q-23 71 -34 112q-56 -179 -59 -187l-68 -179h-401l331 708l-313 657h410l62 -185l12 -39q13 -46 30 -98q20 92 33 135l56 187h414l-312 -657l178 -375l1 2h186v-590h-335v255z" />
    <glyph glyph-name="uni04B3" unicode="&#x4b3;" horiz-adv-x="987" vert-adv-y="2457" 
d="M677 0h-102l-34 88q-26 68 -45 138q-38 -100 -57 -137l-42 -89h-398l291 492l-275 464h405l37 -108q6 -17 31 -98q14 41 38 103l40 103h394l-283 -457l133 -214h206v-542h-339v257z" />
    <glyph glyph-name="uni04B8" unicode="&#x4b8;" horiz-adv-x="1176" vert-adv-y="2457" 
d="M719 0v367q-55 -7 -95 -10v-275h-158v276q-200 31 -324 163q-97 103 -118 256q-7 51 -7 204v384h354v-315q0 -140 10 -188q17 -82 55 -117q11 -10 30 -22v280h158v-312q40 3 95 14v660h354v-1365h-354z" />
    <glyph glyph-name="uni04B9" unicode="&#x4b9;" horiz-adv-x="1072" vert-adv-y="2457" 
d="M648 242l-54 -7v-181h-144v171q-108 0 -179 19q-117 31 -177 130q-39 63 -39 184v398h341v-321q1 -68 8 -82q15 -27 46 -35v251h144v-240l54 8v419h342v-956h-342v242z" />
    <glyph glyph-name="uni04BA" unicode="&#x4ba;" horiz-adv-x="1085" vert-adv-y="2457" 
d="M96 0v1365h369v-612q83 126 246 126q152 0 229 -108q56 -79 56 -217v-554h-355v408q0 69 -20 91q-24 26 -68 26q-54 0 -74 -45q-10 -23 -13 -73l-1 -23v-384h-369z" />
    <glyph glyph-name="uni04BB" unicode="&#x4bb;" horiz-adv-x="1019" vert-adv-y="2457" 
d="M923 0h-355v506q0 67 -13 91q-13 26 -44 26q-74 0 -74 -141v-482h-355v1494h355v-534l-3 -73q-2 -67 -5 -113q86 203 251 203q81 0 147 -55q96 -79 96 -270v-652z" />
    <glyph glyph-name="uni04C0" unicode="&#x4c0;" horiz-adv-x="560" vert-adv-y="2457" 
d="M465 0h-369v1365h369v-1365z" />
    <glyph glyph-name="uni04CF" unicode="&#x4cf;" horiz-adv-x="560" vert-adv-y="2457" 
d="M465 0h-369v1365h369v-1365z" />
    <glyph glyph-name="uni04D8" unicode="&#x4d8;" horiz-adv-x="1159" vert-adv-y="2457" 
d="M56 782l655 -2v7q0 8 -2 22q-21 131 -29.5 157.5t-37.5 53.5q-30 28 -81 28q-48 0 -74 -27t-44 -86l-336 81q36 111 114 200q151 174 363 174q165 0 290 -103q224 -186 224 -599q0 -340 -156 -537q-65 -83 -159 -130q-93 -46 -196 -46q-151 0 -282 96q-139 101 -195 276
q-46 143 -54 435zM448 589q15 -268 130 -268q48 0 86 63q43 73 54 205h-270z" />
    <glyph glyph-name="afii10846" unicode="&#x4d9;" horiz-adv-x="985" vert-adv-y="2457" 
d="M415 631l-347 6q25 112 80 183q121 155 346 155q199 0 317 -123q120 -126 120 -359q0 -208 -106 -346q-128 -167 -341 -167q-143 0 -252 82q-177 133 -177 426q0 21 1 63h521q-8 146 -82 146q-61 0 -80 -66zM407 360q2 -42 14 -69q22 -52 70 -52q76 0 81 121h-165z" />
    <glyph glyph-name="uni04E8" unicode="&#x4e8;" horiz-adv-x="1161" vert-adv-y="2457" 
d="M584 1390q165 0 291 -104q224 -185 224 -608q0 -331 -156 -527q-66 -83 -159 -130q-93 -46 -196 -46q-151 0 -282 95q-245 179 -245 623q0 337 161 523q150 174 362 174zM713 589h-266q21 -269 131 -269q30 0 54 21q70 63 81 248zM447 780h266q-22 266 -128 266
q-73 0 -107 -105q-24 -77 -31 -161z" />
    <glyph glyph-name="uni04E9" unicode="&#x4e9;" horiz-adv-x="998" vert-adv-y="2457" 
d="M496 976q232 0 351 -165q97 -133 97 -348q0 -210 -114 -344q-120 -140 -336 -140q-203 0 -318 132q-121 139 -121 363q0 217 116 358q120 144 325 144zM592 383h-186q25 -136 94 -136q68 0 92 136zM407 574h185q-27 134 -93 134q-65 0 -92 -134z" />
    <glyph glyph-name="Fdotaccent" unicode="&#x1e1e;" horiz-adv-x="795" vert-adv-y="2457" 
d="M465 0h-369v1365h651v-321h-282v-199h263v-309h-263v-536zM422 1785q63 0 108 -43q47 -46 47 -112q0 -62 -45 -109q-46 -46 -110 -46q-65 0 -110 46q-45 45 -45 109q0 65 44 109q46 46 111 46z" />
    <glyph glyph-name="Wacute" unicode="&#x1e82;" horiz-adv-x="553" vert-adv-y="2457" 
d="M499 355h-444v273h444v-273z" />
    <glyph glyph-name="Wdieresis" unicode="&#x1e84;" horiz-adv-x="1543" vert-adv-y="2457" 
d="M1266 0h-356l-84 478q-10 58 -28 184q-17 118 -26 191q-8 -69 -19 -187q-9 -94 -20 -171l-70 -495h-359l-304 1365h364l60 -376l17 -118q21 -140 44 -360q30 300 59 464l69 390h317l62 -328q44 -230 77 -542q19 272 46 446l68 424h360zM974 1772q63 0 106 -44
q43 -43 43 -106q0 -59 -43 -103t-105 -44q-63 0 -106 45q-43 44 -43 105q0 62 44 105q45 42 104 42zM568 1771q60 0 103 -41q45 -44 45 -107q0 -59 -43 -104q-43 -44 -105 -44t-105 44q-43 43 -43 104q0 62 42 104q44 44 106 44z" />
    <glyph glyph-name="uni1EA0" unicode="&#x1ea0;" horiz-adv-x="1090" vert-adv-y="2457" 
d="M1079 0h-381l-27 173h-249l-30 -173h-381l328 1365h451zM628 465l-24 159q-19 123 -46 415q-9 -72 -14 -108q-9 -78 -23 -171l-11 -80l-38 -215h156zM545 -99q63 0 108 -43q47 -45 47 -112q0 -62 -45 -109q-46 -46 -110 -46q-65 0 -110 46q-45 45 -45 109q0 65 44 109
q46 46 111 46z" />
    <glyph glyph-name="uni1EA1" unicode="&#x1ea1;" horiz-adv-x="1017" vert-adv-y="2457" 
d="M936 0h-355l3 45q3 63 9 116q-36 -71 -68 -104q-73 -77 -179 -77q-143 0 -219 148q-72 139 -72 356q0 229 84 364q79 128 216 128q106 0 176 -84q24 -29 54 -87q-4 42 -8 109l-2 42h361v-956zM501 684q-49 0 -69 -59t-20 -179q0 -173 81 -173q84 0 84 218q0 87 -11 131
q-14 62 -65 62zM509 -99q63 0 108 -43q47 -45 47 -112q0 -62 -45 -109q-46 -46 -110 -46q-65 0 -110 46q-45 45 -45 109q0 65 44 109q46 46 111 46z" />
    <glyph glyph-name="uni1EA2" unicode="&#x1ea2;" horiz-adv-x="1090" vert-adv-y="2457" 
d="M1079 0h-381l-27 173h-249l-30 -173h-381l328 1365h451zM628 465l-24 159q-19 123 -46 415q-9 -72 -14 -108q-9 -78 -23 -171l-11 -80l-38 -215h156zM622 1479h-109v151q27 3 68 6q101 8 101 65q0 30 -17 45q-29 26 -70 26q-36 0 -120 -35l-36 91l13 4q106 40 185 40
q84 0 138 -40q70 -51 70 -132q0 -84 -74 -124q-38 -20 -101 -20q-14 0 -48 1v-78z" />
    <glyph glyph-name="uni1EA3" unicode="&#x1ea3;" horiz-adv-x="1017" vert-adv-y="2457" 
d="M936 0h-355l3 45q3 63 9 116q-36 -71 -68 -104q-73 -77 -179 -77q-143 0 -219 148q-72 139 -72 356q0 229 84 364q79 128 216 128q106 0 176 -84q24 -29 54 -87q-4 42 -8 109l-2 42h361v-956zM501 684q-49 0 -69 -59t-20 -179q0 -173 81 -173q84 0 84 218q0 87 -11 131
q-14 62 -65 62zM587 1049h-109v151q27 3 68 6q101 8 101 64q0 30 -17 45q-28 26 -70 26q-35 0 -120 -35l-36 91q7 2 38 14q80 30 160 30q84 0 138 -40q70 -51 70 -132q0 -83 -75 -123q-37 -20 -100 -20q-14 0 -48 1v-78z" />
    <glyph glyph-name="uni1EA4" unicode="&#x1ea4;" horiz-adv-x="1090" vert-adv-y="2457" 
d="M782 1653l57 198h289l-173 -309h-107l41 -68h-278l-71 124l-77 -124h-234l179 283h312zM1079 0h-381l-27 173h-249l-30 -173h-381l328 1365h451zM628 465l-24 159q-19 123 -46 415q-9 -72 -14 -108q-9 -78 -23 -171l-11 -80l-38 -215h156z" />
    <glyph glyph-name="uni1EA5" unicode="&#x1ea5;" horiz-adv-x="1017" vert-adv-y="2457" 
d="M750 1263l63 200h286l-179 -303h-117l38 -75h-260l-72 138l-80 -138h-211l157 284h320zM936 0h-355l3 45q3 63 9 116q-36 -71 -68 -104q-73 -77 -179 -77q-143 0 -219 148q-72 139 -72 356q0 229 84 364q79 128 216 128q106 0 176 -84q24 -29 54 -87q-4 42 -8 109l-2 42
h361v-956zM501 684q-49 0 -69 -59t-20 -179q0 -173 81 -173q84 0 84 218q0 87 -11 131q-14 62 -65 62z" />
    <glyph glyph-name="uni1EA6" unicode="&#x1ea6;" horiz-adv-x="1090" vert-adv-y="2457" 
d="M286 1564h-89l-173 309h289l53 -183l42 67h312l169 -283h-278l-71 124l-77 -124h-234zM1079 0h-381l-27 173h-249l-30 -173h-381l328 1365h451zM628 465l-24 159q-19 123 -46 415q-9 -72 -14 -108q-9 -78 -23 -171l-11 -80l-38 -215h156z" />
    <glyph glyph-name="uni1EA7" unicode="&#x1ea7;" horiz-adv-x="1017" vert-adv-y="2457" 
d="M263 1169h-116l-180 303h286l65 -204l57 101h320l146 -284h-260l-72 139l-80 -139h-211zM935 0h-355l3 45q3 63 9 116q-36 -71 -68 -104q-73 -77 -179 -77q-143 0 -219 148q-72 139 -72 356q0 229 84 364q79 128 216 128q106 0 176 -84q24 -29 54 -87q-4 42 -8 109l-2 42
h361v-956zM500 684q-49 0 -69 -59t-20 -179q0 -173 81 -173q84 0 84 218q0 87 -11 131q-14 62 -65 62z" />
    <glyph glyph-name="uni1EA8" unicode="&#x1ea8;" horiz-adv-x="1090" vert-adv-y="2457" 
d="M814 1599v91q27 3 68 6q101 8 101 65q0 30 -17 45q-28 26 -70 26q-36 0 -120 -35l-36 91q116 44 198 44q84 0 138 -40q70 -51 70 -132q0 -84 -74 -124q-38 -20 -98 -20q-17 0 -51 1v-78h-73l38 -65h-277l-71 124l-77 -124h-235l180 283h312zM1079 0h-381l-27 173h-249
l-30 -173h-381l328 1365h451zM628 465l-24 159q-19 123 -46 415q-9 -72 -14 -108q-9 -78 -23 -171l-11 -80l-38 -215h156z" />
    <glyph glyph-name="uni1EA9" unicode="&#x1ea9;" horiz-adv-x="1017" vert-adv-y="2457" 
d="M759 1244v57q27 3 68 6q101 8 101 65q0 30 -17 45q-28 26 -70 26q-36 0 -120 -35l-36 91q116 44 198 44q84 0 138 -40q70 -51 70 -132q0 -84 -75 -124q-37 -20 -97 -20q-17 0 -51 1v-78h-61l34 -65h-260l-72 138l-80 -138h-211l157 284h320zM936 0h-355l3 45q3 63 9 116
q-36 -71 -68 -104q-73 -77 -179 -77q-143 0 -219 148q-72 139 -72 356q0 229 84 364q79 128 216 128q106 0 176 -84q24 -29 54 -87q-4 42 -8 109l-2 42h361v-956zM501 684q-49 0 -69 -59t-20 -179q0 -173 81 -173q84 0 84 218q0 87 -11 131q-14 62 -65 62z" />
    <glyph glyph-name="uni1EAA" unicode="&#x1eaa;" horiz-adv-x="1090" vert-adv-y="2457" 
d="M1079 0h-381l-27 173h-249l-30 -173h-381l328 1365h451zM628 465l-24 159q-19 123 -46 415q-9 -72 -14 -108q-9 -78 -23 -171l-11 -80l-38 -215h156zM889 1474h-278l-71 123l-77 -123h-234l179 283h312zM710 2079h183v-29q0 -101 -57 -172q-57 -72 -158 -72
q-63 0 -154 41q-59 27 -86 27q-51 0 -55 -72h-186q0 75 11 114q20 70 76 116q49 40 120 40q51 0 109 -20l81 -34q32 -14 59 -14q52 0 57 75z" />
    <glyph glyph-name="uni1EAB" unicode="&#x1eab;" horiz-adv-x="1017" vert-adv-y="2457" 
d="M936 0h-355l3 45q3 63 9 116q-36 -71 -68 -104q-73 -77 -179 -77q-143 0 -219 148q-72 139 -72 356q0 229 84 364q79 128 216 128q106 0 176 -84q24 -29 54 -87q-4 42 -8 109l-2 42h361v-956zM501 684q-49 0 -69 -59t-20 -179q0 -173 81 -173q84 0 84 218q0 87 -11 131
q-14 62 -65 62zM841 1085h-260l-72 138l-80 -138h-211l157 284h320zM673 1678h184v-29q0 -100 -57 -172t-158 -72q-63 0 -154 41q-59 27 -86 27q-51 0 -55 -72h-186q0 75 11 114q20 70 76 116q49 40 120 40q51 0 109 -20l81 -34q32 -14 59 -14q52 0 56 75z" />
    <glyph glyph-name="uni1EAC" unicode="&#x1eac;" horiz-adv-x="1090" vert-adv-y="2457" 
d="M1079 0h-381l-27 173h-249l-30 -173h-381l328 1365h451zM628 465l-24 159q-19 123 -46 415q-9 -72 -14 -108q-9 -78 -23 -171l-11 -80l-38 -215h156zM889 1474h-278l-71 123l-77 -123h-234l179 283h312zM545 -99q63 0 108 -43q47 -45 47 -112q0 -62 -45 -109
q-46 -46 -110 -46q-65 0 -110 46q-45 45 -45 109q0 65 44 109q46 46 111 46z" />
    <glyph glyph-name="uni1EAD" unicode="&#x1ead;" horiz-adv-x="1017" vert-adv-y="2457" 
d="M936 0h-355l3 45q3 63 9 116q-36 -71 -68 -104q-73 -77 -179 -77q-143 0 -219 148q-72 139 -72 356q0 229 84 364q79 128 216 128q106 0 176 -84q24 -29 54 -87q-4 42 -8 109l-2 42h361v-956zM501 684q-49 0 -69 -59t-20 -179q0 -173 81 -173q84 0 84 218q0 87 -11 131
q-14 62 -65 62zM841 1085h-260l-72 138l-80 -138h-211l157 284h320zM509 -99q63 0 108 -43q47 -45 47 -112q0 -62 -45 -109q-46 -46 -110 -46q-65 0 -110 46q-45 45 -45 109q0 65 44 109q46 46 111 46z" />
    <glyph glyph-name="uni1EAE" unicode="&#x1eae;" horiz-adv-x="1090" vert-adv-y="2457" 
d="M1079 0h-381l-27 173h-249l-30 -173h-381l328 1365h451zM628 465l-24 159q-19 123 -46 415q-9 -72 -14 -108q-9 -78 -23 -171l-11 -80l-38 -215h156zM231 1774h142q21 -52 48 -74q45 -35 138 -35t137 35q27 22 48 74h143q-11 -119 -81 -204q-82 -100 -249 -100
q-171 0 -260 120q-56 76 -66 184zM830 2056l-173 -309h-205l89 309h289z" />
    <glyph glyph-name="uni1EAF" unicode="&#x1eaf;" horiz-adv-x="1017" vert-adv-y="2457" 
d="M936 0h-355l3 45q3 63 9 116q-36 -71 -68 -104q-73 -77 -179 -77q-143 0 -219 148q-72 139 -72 356q0 229 84 364q79 128 216 128q106 0 176 -84q24 -29 54 -87q-4 42 -8 109l-2 42h361v-956zM501 684q-49 0 -69 -59t-20 -179q0 -173 81 -173q84 0 84 218q0 87 -11 131
q-14 62 -65 62zM195 1390h142q20 -53 48 -75q45 -35 136 -35q84 0 126 35q28 25 48 75h142q-30 -305 -319 -305q-167 0 -257 120q-57 76 -66 185zM400 1353l96 303h286l-179 -303h-203z" />
    <glyph glyph-name="uni1EB0" unicode="&#x1eb0;" horiz-adv-x="1090" vert-adv-y="2457" 
d="M1079 0h-381l-27 173h-249l-30 -173h-381l328 1365h451zM628 465l-24 159q-19 123 -46 415q-9 -72 -14 -108q-9 -78 -23 -171l-11 -80l-38 -215h156zM231 1774h142q21 -52 48 -74q45 -35 138 -35t137 35q27 22 48 74h143q-11 -119 -81 -204q-82 -100 -249 -100
q-171 0 -260 120q-56 76 -66 184zM274 2050h289l89 -309h-205z" />
    <glyph glyph-name="uni1EB1" unicode="&#x1eb1;" horiz-adv-x="1017" vert-adv-y="2457" 
d="M936 0h-355l3 45q3 63 9 116q-36 -71 -68 -104q-73 -77 -179 -77q-143 0 -219 148q-72 139 -72 356q0 229 84 364q79 128 216 128q106 0 176 -84q24 -29 54 -87q-4 42 -8 109l-2 42h361v-956zM501 684q-49 0 -69 -59t-20 -179q0 -173 81 -173q84 0 84 218q0 87 -11 131
q-14 62 -65 62zM195 1390h142q20 -53 48 -75q45 -35 136 -35q84 0 126 35q28 25 48 75h142q-30 -305 -319 -305q-167 0 -257 120q-57 76 -66 185zM619 1348h-204l-179 303h286z" />
    <glyph glyph-name="uni1EB2" unicode="&#x1eb2;" horiz-adv-x="1090" vert-adv-y="2457" 
d="M1079 0h-381l-27 173h-249l-30 -173h-381l328 1365h451zM628 465l-24 159q-19 123 -46 415q-9 -72 -14 -108q-9 -78 -23 -171l-11 -80l-38 -215h156zM231 1774h142q21 -52 48 -74q45 -35 138 -35t137 35q27 22 48 74h143q-11 -119 -81 -204q-82 -100 -249 -100
q-171 0 -260 120q-56 76 -66 184zM608 1723h-109v151q27 3 68 6q101 8 101 65q0 30 -17 45q-28 26 -70 26q-36 0 -120 -35l-36 91q116 44 198 44q84 0 138 -40q70 -51 70 -132q0 -84 -75 -124q-37 -20 -100 -20q-14 0 -48 1v-78z" />
    <glyph glyph-name="uni1EB3" unicode="&#x1eb3;" horiz-adv-x="1017" vert-adv-y="2457" 
d="M936 0h-355l3 45q3 63 9 116q-36 -71 -68 -104q-73 -77 -179 -77q-143 0 -219 148q-72 139 -72 356q0 229 84 364q79 128 216 128q106 0 176 -84q24 -29 54 -87q-4 42 -8 109l-2 42h361v-956zM501 684q-49 0 -69 -59t-20 -179q0 -173 81 -173q84 0 84 218q0 87 -11 131
q-14 62 -65 62zM195 1390h142q20 -53 48 -75q45 -35 136 -35q84 0 126 35q28 25 48 75h142q-30 -305 -319 -305q-167 0 -257 120q-57 76 -66 185zM564 1349h-109v151q27 3 68 6q101 8 101 65q0 30 -17 45q-28 26 -70 26q-37 0 -120 -35l-36 91q9 3 38 14q80 30 160 30
q84 0 138 -40q70 -51 70 -132q0 -84 -75 -124q-37 -20 -100 -20q-14 0 -48 1v-78z" />
    <glyph glyph-name="uni1EB4" unicode="&#x1eb4;" horiz-adv-x="1090" vert-adv-y="2457" 
d="M1079 0h-381l-27 173h-249l-30 -173h-381l328 1365h451zM628 465l-24 159q-19 123 -46 415q-9 -72 -14 -108q-9 -78 -23 -171l-11 -80l-38 -215h156zM231 1774h142q21 -52 48 -74q45 -35 138 -35t137 35q27 22 48 74h143q-11 -119 -81 -204q-82 -100 -249 -100
q-171 0 -260 120q-56 76 -66 184zM736 2125h183q1 -20 1 -30q0 -100 -57 -172t-158 -72q-63 0 -155 42q-59 27 -86 27q-51 0 -54 -73h-187q0 75 12 115q19 69 75 115q50 41 120 41q52 0 109 -21q11 -4 81 -34q33 -14 59 -14q52 0 57 76z" />
    <glyph glyph-name="uni1EB5" unicode="&#x1eb5;" horiz-adv-x="1017" vert-adv-y="2457" 
d="M936 0h-355l3 45q3 63 9 116q-36 -71 -68 -104q-73 -77 -179 -77q-143 0 -219 148q-72 139 -72 356q0 229 84 364q79 128 216 128q106 0 176 -84q24 -29 54 -87q-4 42 -8 109l-2 42h361v-956zM501 684q-49 0 -69 -59t-20 -179q0 -173 81 -173q84 0 84 218q0 87 -11 131
q-14 62 -65 62zM195 1390h142q20 -53 48 -75q45 -35 136 -35q84 0 126 35q28 25 48 75h142q-30 -305 -319 -305q-167 0 -257 120q-57 76 -66 185zM673 1746h184v-29q0 -100 -57 -172t-158 -72q-63 0 -154 41q-59 27 -86 27q-51 0 -55 -72h-186q0 74 11 114q20 70 76 116
q49 40 120 40q51 0 109 -20l81 -34q32 -14 59 -14q52 0 56 75z" />
    <glyph glyph-name="uni1EB6" unicode="&#x1eb6;" horiz-adv-x="1090" vert-adv-y="2457" 
d="M1079 0h-381l-27 173h-249l-30 -173h-381l328 1365h451zM628 465l-24 159q-19 123 -46 415q-9 -72 -14 -108q-9 -78 -23 -171l-11 -80l-38 -215h156zM231 1774h142q21 -52 48 -74q45 -35 138 -35t137 35q27 22 48 74h143q-11 -119 -81 -204q-82 -100 -249 -100
q-171 0 -260 120q-56 76 -66 184zM545 -99q63 0 108 -43q47 -45 47 -112q0 -62 -45 -109q-46 -46 -110 -46q-65 0 -110 46q-45 45 -45 109q0 65 44 109q46 46 111 46z" />
    <glyph glyph-name="uni1EB7" unicode="&#x1eb7;" horiz-adv-x="1017" vert-adv-y="2457" 
d="M936 0h-355l3 45q3 63 9 116q-36 -71 -68 -104q-73 -77 -179 -77q-143 0 -219 148q-72 139 -72 356q0 229 84 364q79 128 216 128q106 0 176 -84q24 -29 54 -87q-4 42 -8 109l-2 42h361v-956zM501 684q-49 0 -69 -59t-20 -179q0 -173 81 -173q84 0 84 218q0 87 -11 131
q-14 62 -65 62zM195 1390h142q20 -53 48 -75q45 -35 136 -35q84 0 126 35q28 25 48 75h142q-30 -305 -319 -305q-167 0 -257 120q-57 76 -66 185zM509 -99q63 0 108 -43q47 -45 47 -112q0 -62 -45 -109q-46 -46 -110 -46q-65 0 -110 46q-45 45 -45 109q0 65 44 109
q46 46 111 46z" />
    <glyph glyph-name="uni1EB8" unicode="&#x1eb8;" horiz-adv-x="842" vert-adv-y="2457" 
d="M96 0v1365h685v-321h-316v-199h284v-309h-284v-208h316v-328h-685zM422 -99q63 0 108 -43q47 -45 47 -112q0 -62 -45 -109q-46 -46 -110 -46t-110 46q-45 45 -45 109q0 65 44 109q46 46 111 46z" />
    <glyph glyph-name="uni1EB9" unicode="&#x1eb9;" horiz-adv-x="985" vert-adv-y="2457" 
d="M571 324l347 -7q-25 -112 -80 -183q-120 -155 -346 -155q-199 0 -317 123q-120 126 -120 359q0 208 106 346q129 168 341 168q143 0 252 -82q177 -134 177 -427q0 -23 -1 -63h-521q8 -147 83 -147q60 0 79 68zM579 594q-2 42 -14 69q-22 52 -69 52q-77 0 -82 -121h165z
M493 -99q63 0 108 -43q47 -45 47 -112q0 -62 -45 -109q-45 -46 -110 -46t-110 46q-45 45 -45 109q0 65 44 109q46 46 111 46z" />
    <glyph glyph-name="uni1EBA" unicode="&#x1eba;" horiz-adv-x="842" vert-adv-y="2457" 
d="M96 0v1365h685v-321h-316v-199h284v-309h-284v-208h316v-328h-685zM466 1525h-109v151q27 3 68 6q101 8 101 65q0 30 -17 45q-28 26 -70 26q-39 0 -120 -36l-36 92q116 44 198 44q84 0 138 -40q70 -51 70 -132q0 -84 -75 -124q-37 -20 -100 -20q-14 0 -48 1v-78z" />
    <glyph glyph-name="uni1EBB" unicode="&#x1ebb;" horiz-adv-x="985" vert-adv-y="2457" 
d="M571 324l347 -7q-25 -112 -80 -183q-120 -155 -346 -155q-199 0 -317 123q-120 126 -120 359q0 208 106 346q129 168 341 168q143 0 252 -82q177 -134 177 -427q0 -23 -1 -63h-521q8 -147 83 -147q60 0 79 68zM579 594q-2 42 -14 69q-22 52 -69 52q-77 0 -82 -121h165z
M547 1014h-109v151q27 3 68 6q101 8 101 65q0 30 -17 46q-28 25 -70 25q-36 0 -120 -35l-36 91q116 44 198 44q84 0 138 -40q70 -51 70 -132q0 -84 -75 -124q-37 -20 -100 -20q-14 0 -48 1v-78z" />
    <glyph glyph-name="uni1EBC" unicode="&#x1ebc;" horiz-adv-x="843" vert-adv-y="2457" 
d="M96 0v1365h685v-321h-316v-199h283v-309h-283v-208h316v-328h-685zM586 1752h183v-29q0 -100 -57 -172t-158 -72q-63 0 -154 41q-59 27 -86 27q-51 0 -54 -72h-187q0 75 11 114q20 70 76 116q49 40 120 40q51 0 109 -20l81 -34q32 -14 59 -14q52 0 57 75z" />
    <glyph glyph-name="uni1EBD" unicode="&#x1ebd;" horiz-adv-x="985" vert-adv-y="2457" 
d="M571 324l347 -7q-25 -112 -80 -183q-120 -155 -346 -155q-199 0 -317 123q-120 126 -120 359q0 208 106 346q129 168 341 168q143 0 252 -82q177 -134 177 -427q0 -23 -1 -63h-521q8 -147 83 -147q60 0 79 68zM579 594q-2 42 -14 69q-22 52 -69 52q-77 0 -82 -121h165z
M658 1363h183v-29q0 -102 -57 -173q-58 -72 -158 -72q-63 0 -154 42q-59 27 -86 27q-51 0 -54 -73h-187q0 75 11 115q20 69 76 115q49 41 120 41q52 0 109 -21l81 -34q32 -14 59 -14q52 0 57 76z" />
    <glyph glyph-name="uni1EBE" unicode="&#x1ebe;" horiz-adv-x="842" vert-adv-y="2457" 
d="M664 1652l57 201h289l-172 -309h-110l41 -70h-277l-71 124l-77 -124h-234l179 283h312zM96 0v1365h685v-321h-316v-199h284v-309h-284v-208h316v-328h-685z" />
    <glyph glyph-name="uni1EBF" unicode="&#x1ebf;" horiz-adv-x="985" vert-adv-y="2457" 
d="M707 1276l55 173h286l-180 -303h-95l32 -61h-260l-72 138l-80 -138h-211l157 284h320zM571 324l347 -7q-25 -112 -80 -183q-120 -155 -346 -155q-199 0 -317 123q-120 126 -120 359q0 208 106 346q129 168 341 168q143 0 252 -82q177 -134 177 -426q0 -24 -1 -64h-521
q8 -147 83 -147q60 0 79 68zM579 594q-2 42 -14 69q-22 52 -69 52q-77 0 -82 -121h165z" />
    <glyph glyph-name="uni1EC0" unicode="&#x1ec0;" horiz-adv-x="842" vert-adv-y="2457" 
d="M155 1547h-107l-173 309h289l58 -203l66 104h312l168 -283h-277l-71 123l-77 -123h-234zM95 0v1365h685v-321h-316v-199h284v-309h-284v-208h316v-328h-685z" />
    <glyph glyph-name="uni1EC1" unicode="&#x1ec1;" horiz-adv-x="985" vert-adv-y="2457" 
d="M223 1162h-111l-180 303h286l63 -198l57 102h320l146 -284h-260l-72 138l-80 -138h-211zM571 324l346 -7q-25 -112 -80 -183q-120 -155 -345 -155q-200 0 -318 123q-120 126 -120 359q0 208 106 346q129 168 341 168q143 0 252 -82q178 -134 178 -426q0 -19 -2 -64h-520
q7 -147 82 -147q61 0 80 68zM578 594q-1 42 -13 69q-23 52 -70 52q-76 0 -82 -121h165z" />
    <glyph glyph-name="uni1EC2" unicode="&#x1ec2;" horiz-adv-x="842" vert-adv-y="2457" 
d="M686 1614v66q27 3 68 6q101 8 101 65q0 30 -17 46q-28 25 -70 25q-35 0 -120 -35l-36 91l38 14q79 30 160 30q84 0 138 -40q70 -51 70 -132q0 -84 -75 -124q-37 -20 -97 -20q-17 0 -51 1v-78h-58l33 -55h-278l-71 123l-77 -123h-234l179 283h312zM96 0v1365h685v-321
h-316v-199h284v-309h-284v-208h316v-328h-685z" />
    <glyph glyph-name="uni1EC3" unicode="&#x1ec3;" horiz-adv-x="985" vert-adv-y="2457" 
d="M735 1221v82q27 3 68 6q101 8 101 65q0 30 -17 45q-28 26 -70 26q-37 0 -120 -35l-36 91q116 44 198 44q84 0 138 -40q70 -51 70 -132q0 -84 -74 -124q-38 -20 -98 -20q-17 0 -51 1v-78h-74l35 -67h-260l-72 138l-80 -138h-211l157 284h320zM571 324l347 -7
q-25 -112 -80 -183q-120 -155 -346 -155q-199 0 -317 123q-120 126 -120 359q0 208 106 346q129 168 341 168q143 0 252 -82q177 -134 177 -426q0 -24 -1 -64h-521q8 -147 83 -147q60 0 79 68zM579 594q-2 42 -14 69q-22 52 -69 52q-77 0 -82 -121h165z" />
    <glyph glyph-name="uni1EC4" unicode="&#x1ec4;" horiz-adv-x="843" vert-adv-y="2457" 
d="M96 0v1365h685v-321h-316v-199h283v-309h-283v-208h316v-328h-685zM769 1474h-278l-71 123l-77 -123h-234l179 283h312zM586 2083h183v-30q0 -100 -57 -172t-158 -72q-63 0 -154 42q-59 27 -86 27q-51 0 -54 -73h-187q0 75 11 115q20 70 76 115q49 41 120 41
q51 0 109 -21l81 -34q32 -14 59 -14q52 0 57 76z" />
    <glyph glyph-name="uni1EC5" unicode="&#x1ec5;" horiz-adv-x="985" vert-adv-y="2457" 
d="M571 324l347 -7q-25 -112 -80 -183q-120 -155 -346 -155q-199 0 -317 123q-120 126 -120 359q0 208 106 346q129 168 341 168q143 0 252 -82q177 -134 177 -427q0 -23 -1 -63h-521q8 -147 83 -147q60 0 79 68zM579 594q-2 42 -14 69q-22 52 -69 52q-77 0 -82 -121h165z
M805 1085h-260l-72 138l-80 -138h-211l157 284h320zM658 1699h183v-29q0 -101 -57 -172q-58 -72 -158 -72q-63 0 -154 41q-59 27 -86 27q-51 0 -54 -72h-187q0 75 11 114q21 70 76 116q49 40 120 40q51 0 109 -20l81 -34q32 -14 59 -14q52 0 57 75z" />
    <glyph glyph-name="uni1EC6" unicode="&#x1ec6;" horiz-adv-x="842" vert-adv-y="2457" 
d="M96 0v1365h685v-321h-316v-199h284v-309h-284v-208h316v-328h-685zM769 1474h-277l-71 123l-77 -123h-234l179 283h312zM422 -99q63 0 108 -43q47 -45 47 -112q0 -62 -45 -109q-46 -46 -110 -46t-110 46q-45 45 -45 109q0 65 44 109q46 46 111 46z" />
    <glyph glyph-name="uni1EC7" unicode="&#x1ec7;" horiz-adv-x="985" vert-adv-y="2457" 
d="M571 324l347 -7q-25 -112 -80 -183q-120 -155 -346 -155q-199 0 -317 123q-120 126 -120 359q0 208 106 346q129 168 341 168q143 0 252 -82q177 -134 177 -427q0 -23 -1 -63h-521q8 -147 83 -147q60 0 79 68zM579 594q-2 42 -14 69q-22 52 -69 52q-77 0 -82 -121h165z
M805 1085h-260l-72 138l-80 -138h-211l157 284h320zM493 -99q63 0 108 -43q47 -45 47 -112q0 -62 -45 -109q-45 -46 -110 -46t-110 46q-45 45 -45 109q0 65 44 109q46 46 111 46z" />
    <glyph glyph-name="uni1EC8" unicode="&#x1ec8;" horiz-adv-x="560" vert-adv-y="2457" 
d="M465 0h-369v1365h369v-1365zM336 1516h-109v151q27 3 68 6q101 8 101 65q0 30 -17 45q-29 26 -70 26q-36 0 -120 -35l-36 91l13 4q106 40 185 40q84 0 138 -40q70 -51 70 -132q0 -84 -74 -124q-38 -20 -101 -20q-14 0 -48 1v-78z" />
    <glyph glyph-name="uni1EC9" unicode="&#x1ec9;" horiz-adv-x="519" vert-adv-y="2457" 
d="M437 0h-355v956h355v-956zM324 1075h-109v151q27 3 68 6q101 8 101 65q0 30 -17 45q-29 26 -70 26q-35 0 -120 -36l-36 91q117 45 198 45q84 0 138 -40q70 -51 70 -132q0 -84 -75 -124q-37 -20 -100 -20q-11 0 -48 1v-78z" />
    <glyph glyph-name="uni1ECA" unicode="&#x1eca;" horiz-adv-x="560" vert-adv-y="2457" 
d="M465 0h-369v1365h369v-1365zM281 -99q63 0 108 -43q47 -45 47 -112q0 -62 -45 -109q-45 -46 -110 -46t-110 46q-45 45 -45 109q0 65 44 109q46 46 111 46z" />
    <glyph glyph-name="uni1ECB" unicode="&#x1ecb;" horiz-adv-x="519" vert-adv-y="2457" 
d="M437 0h-355v956h355v-956zM259 1461q85 0 146 -59q62 -60 62 -150q0 -82 -59 -143q-61 -62 -148 -62q-85 0 -146 60q-61 61 -61 148q0 86 60 145q62 61 146 61zM259 -99q63 0 108 -43q47 -45 47 -112q0 -62 -45 -109q-45 -46 -110 -46q-64 0 -110 46q-45 45 -45 109
q0 65 44 109q46 46 111 46z" />
    <glyph glyph-name="uni1ECC" unicode="&#x1ecc;" horiz-adv-x="1161" vert-adv-y="2457" 
d="M584 1390q165 0 291 -104q224 -185 224 -608q0 -331 -156 -527q-66 -83 -159 -130q-93 -46 -196 -46q-151 0 -282 95q-245 179 -245 623q0 337 161 523q150 174 362 174zM584 1046q-57 0 -93 -74q-48 -96 -48 -289q0 -212 51 -303q33 -60 84 -60q50 0 87 63q51 86 51 292
q0 371 -132 371zM580 -99q63 0 108 -43q47 -46 47 -112q0 -62 -45 -109q-45 -46 -110 -46t-110 46q-45 45 -45 109q0 65 44 109q46 46 111 46z" />
    <glyph glyph-name="uni1ECD" unicode="&#x1ecd;" horiz-adv-x="998" vert-adv-y="2457" 
d="M496 976q232 0 351 -165q97 -133 97 -348q0 -210 -114 -344q-120 -140 -336 -140q-203 0 -318 132q-121 139 -121 363q0 217 116 358q120 144 325 144zM499 708q-37 0 -63 -45q-37 -64 -37 -186q0 -132 44 -196q24 -34 57 -34q37 0 63 45q37 64 37 182q0 137 -44 200
q-23 34 -57 34zM500 -99q63 0 108 -43q47 -46 47 -112q0 -62 -45 -109q-45 -46 -110 -46t-110 46q-45 45 -45 109q0 65 44 109q46 46 111 46z" />
    <glyph glyph-name="uni1ECE" unicode="&#x1ece;" horiz-adv-x="1161" vert-adv-y="2457" 
d="M524 1636q27 3 68 6q101 9 101 65q0 30 -17 45q-28 26 -70 26q-39 0 -120 -36l-36 92q116 44 198 44q84 0 138 -40q70 -51 70 -132q0 -84 -75 -124q-37 -20 -97 -20q-18 0 -51 1v-78h-109v151zM579 1390q267 0 410 -237q110 -184 110 -464q0 -342 -156 -538
q-65 -83 -159 -130q-93 -46 -196 -46q-150 0 -282 95q-245 179 -245 623q0 337 161 523q150 174 357 174zM584 1046q-57 0 -93 -74q-48 -96 -48 -289q0 -212 51 -303q34 -60 84 -60q51 0 88 63q51 86 51 292q0 371 -133 371z" />
    <glyph glyph-name="uni1ECF" unicode="&#x1ecf;" horiz-adv-x="998" vert-adv-y="2457" 
d="M490 976q271 0 388 -213q66 -122 66 -296q0 -214 -114 -348q-120 -140 -335 -140q-204 0 -319 132q-121 139 -121 363q0 217 116 358q120 144 319 144zM499 708q-37 0 -63 -45q-37 -64 -37 -186q0 -132 44 -196q24 -34 57 -34q37 0 63 45q37 64 37 182q0 137 -44 200
q-23 34 -57 34zM583 1070h-109v151q27 3 68 6q101 8 101 64q0 30 -17 46q-28 25 -70 25q-38 0 -120 -35l-36 91q118 44 198 44q84 0 138 -40q70 -50 70 -132q0 -83 -74 -123q-38 -20 -101 -20q-15 0 -48 1v-78z" />
    <glyph glyph-name="uni1ED0" unicode="&#x1ed0;" horiz-adv-x="1161" vert-adv-y="2457" 
d="M804 1640l61 211h289l-173 -309h-118l40 -68h-278l-71 124l-76 -124h-235l179 283h312zM585 1390q164 0 290 -104q125 -103 182 -285q42 -137 42 -305q0 -349 -156 -545q-65 -83 -159 -130q-93 -46 -197 -46q-150 0 -281 95q-245 178 -245 623q0 337 161 523
q150 174 363 174zM584 1046q-57 0 -93 -74q-48 -96 -48 -289q0 -212 51 -303q34 -60 84 -60q51 0 88 63q51 86 51 292q0 371 -133 371z" />
    <glyph glyph-name="uni1ED1" unicode="&#x1ed1;" horiz-adv-x="998" vert-adv-y="2457" 
d="M716 1270l61 193h287l-180 -303h-111l38 -75h-260l-72 138l-80 -138h-211l157 284h320zM497 976q231 0 350 -165q97 -133 97 -335q0 -223 -114 -357q-120 -140 -337 -140q-202 0 -317 132q-121 139 -121 363q0 217 116 358q120 144 326 144zM499 708q-37 0 -63 -45
q-37 -64 -37 -186q0 -132 44 -196q24 -34 57 -34q37 0 63 45q37 64 37 182q0 137 -44 200q-23 34 -57 34z" />
    <glyph glyph-name="uni1ED2" unicode="&#x1ed2;" horiz-adv-x="1161" vert-adv-y="2457" 
d="M297 1559h-122l-173 309h289l63 -219l69 108h312l168 -283h-277l-71 124l-77 -124h-235zM585 1390q164 0 290 -104q224 -185 224 -590q0 -349 -156 -545q-65 -84 -159 -130q-93 -46 -197 -46q-150 0 -281 95q-245 179 -245 623q0 337 161 523q151 174 363 174zM585 1046
q-58 0 -94 -74q-48 -96 -48 -289q0 -212 51 -303q34 -60 84 -60q51 0 88 63q51 86 51 292q0 371 -132 371z" />
    <glyph glyph-name="uni1ED3" unicode="&#x1ed3;" horiz-adv-x="998" vert-adv-y="2457" 
d="M224 1152h-104l-180 303h286l61 -190l58 104h320l146 -284h-260l-72 139l-80 -139h-211zM497 976q231 0 350 -165q97 -133 97 -335q0 -223 -114 -357q-120 -140 -337 -140q-202 0 -317 132q-121 139 -121 363q0 217 116 358q120 144 326 144zM499 708q-37 0 -63 -45
q-37 -64 -37 -186q0 -132 44 -196q23 -34 57 -34q37 0 63 45q37 64 37 182q0 137 -44 200q-24 34 -57 34z" />
    <glyph glyph-name="uni1ED4" unicode="&#x1ed4;" horiz-adv-x="1161" vert-adv-y="2457" 
d="M821 1611v82q27 3 68 6q101 8 101 65q0 30 -17 45q-28 26 -70 26q-37 0 -120 -35l-36 91q116 44 198 44q84 0 138 -40q70 -51 70 -132q0 -84 -74 -124q-38 -20 -98 -20q-18 0 -51 1v-78h-68l40 -68h-277l-71 123l-77 -123h-234l179 283h312zM585 1390q164 0 290 -104
q125 -103 182 -285q42 -137 42 -305q0 -349 -156 -545q-65 -83 -159 -130q-93 -46 -197 -46q-150 0 -281 95q-245 178 -245 623q0 337 161 523q150 174 363 174zM584 1046q-57 0 -93 -74q-48 -96 -48 -289q0 -212 51 -303q34 -60 84 -60q51 0 88 63q51 86 51 292
q0 371 -133 371z" />
    <glyph glyph-name="uni1ED5" unicode="&#x1ed5;" horiz-adv-x="998" vert-adv-y="2457" 
d="M727 1249v71q27 3 68 6q101 8 101 65q0 30 -17 45q-28 26 -70 26q-36 0 -120 -36l-36 91q116 45 198 45q84 0 138 -40q70 -51 70 -132q0 -84 -74 -124q-38 -20 -98 -20q-18 0 -51 1v-78h-68l43 -84h-260l-72 138l-80 -138h-211l157 284h320zM497 976q231 0 350 -165
q97 -133 97 -335q0 -223 -114 -357q-120 -140 -337 -140q-202 0 -317 132q-121 139 -121 363q0 217 116 358q120 144 326 144zM499 708q-37 0 -63 -45q-37 -64 -37 -186q0 -132 44 -196q24 -34 57 -34q37 0 63 45q37 64 37 182q0 137 -44 200q-23 34 -57 34z" />
    <glyph glyph-name="uni1ED6" unicode="&#x1ed6;" horiz-adv-x="1161" vert-adv-y="2457" 
d="M584 1390q165 0 291 -104q224 -185 224 -608q0 -331 -156 -527q-66 -83 -159 -130q-93 -46 -196 -46q-151 0 -282 95q-245 179 -245 623q0 337 161 523q150 174 362 174zM584 1046q-57 0 -93 -74q-48 -96 -48 -289q0 -212 51 -303q33 -60 84 -60q50 0 87 63q51 86 51 292
q0 371 -132 371zM903 1474h-278l-71 123l-76 -123h-235l179 283h312zM744 2089h183q1 -16 1 -30q0 -100 -57 -172t-158 -72q-63 0 -154 42q-59 27 -86 27q-51 0 -55 -73h-186q0 75 11 115q20 70 75 115q50 41 121 41q51 0 109 -21q10 -4 80 -34q33 -14 59 -14q52 0 57 76z
" />
    <glyph glyph-name="uni1ED7" unicode="&#x1ed7;" horiz-adv-x="998" vert-adv-y="2457" 
d="M496 976q232 0 351 -165q97 -133 97 -348q0 -210 -114 -344q-120 -140 -336 -140q-203 0 -318 132q-121 139 -121 363q0 217 116 358q120 144 325 144zM499 708q-37 0 -63 -45q-37 -64 -37 -186q0 -132 44 -196q24 -34 57 -34q37 0 63 45q37 64 37 182q0 137 -44 200
q-23 34 -57 34zM811 1085h-260l-72 138l-80 -138h-211l157 284h320zM664 1699h183q1 -19 1 -29q0 -100 -57 -172t-158 -72q-63 0 -154 41q-59 27 -87 27q-51 0 -54 -72h-187q0 75 12 114q20 70 75 116q49 40 120 40q52 0 109 -20q11 -4 81 -34q32 -14 59 -14q52 0 57 75z
" />
    <glyph glyph-name="uni1ED8" unicode="&#x1ed8;" horiz-adv-x="1161" vert-adv-y="2457" 
d="M584 1390q165 0 291 -104q224 -185 224 -608q0 -331 -156 -527q-66 -83 -159 -130q-93 -46 -196 -46q-151 0 -282 95q-245 179 -245 623q0 337 161 523q150 174 362 174zM584 1046q-57 0 -93 -74q-48 -96 -48 -289q0 -212 51 -303q33 -60 84 -60q50 0 87 63q51 86 51 292
q0 371 -132 371zM903 1474h-278l-71 123l-76 -123h-235l179 283h312zM580 -99q63 0 108 -43q47 -46 47 -112q0 -62 -45 -109q-45 -46 -110 -46t-110 46q-45 45 -45 109q0 65 44 109q46 46 111 46z" />
    <glyph glyph-name="uni1ED9" unicode="&#x1ed9;" horiz-adv-x="998" vert-adv-y="2457" 
d="M496 976q232 0 351 -165q97 -133 97 -348q0 -210 -114 -344q-120 -140 -336 -140q-203 0 -318 132q-121 139 -121 363q0 217 116 358q120 144 325 144zM499 708q-37 0 -63 -45q-37 -64 -37 -186q0 -132 44 -196q24 -34 57 -34q37 0 63 45q37 64 37 182q0 137 -44 200
q-23 34 -57 34zM811 1085h-260l-72 138l-80 -138h-211l157 284h320zM500 -99q63 0 108 -43q47 -46 47 -112q0 -62 -45 -109q-45 -46 -110 -46t-110 46q-45 45 -45 109q0 65 44 109q46 46 111 46z" />
    <glyph glyph-name="uni1EDA" unicode="&#x1eda;" horiz-adv-x="1161" vert-adv-y="2457" 
d="M864 1783l-172 -309h-205l89 309h288zM1013 1107q86 -175 86 -416q0 -344 -156 -540q-65 -83 -159 -130q-93 -46 -196 -46q-150 0 -282 95q-245 179 -245 623q0 240 75 393q79 160 214 240q108 64 236 64q218 0 364 -185l82 230h240l-167 -328h-92zM584 1047
q-57 0 -93 -74q-48 -96 -48 -289q0 -212 51 -303q34 -60 84 -60q51 0 88 63q51 86 51 292q0 371 -133 371z" />
    <glyph glyph-name="uni1EDB" unicode="&#x1edb;" horiz-adv-x="998" vert-adv-y="2457" 
d="M390 1086l97 303h286l-180 -303h-203zM789 860l80 225h240l-167 -328h-61q63 -128 63 -287q0 -217 -114 -351q-120 -140 -335 -140q-204 0 -319 132q-121 138 -121 363q0 216 116 358q119 144 318 144q123 0 194 -35q45 -22 106 -81zM499 708q-37 0 -63 -45
q-37 -64 -37 -186q0 -132 44 -196q24 -34 57 -34q37 0 63 45q37 64 37 182q0 137 -44 200q-23 34 -57 34z" />
    <glyph glyph-name="uni1EDC" unicode="&#x1edc;" horiz-adv-x="1161" vert-adv-y="2457" 
d="M309 1783h289l89 -309h-205zM1013 1107q86 -175 86 -416q0 -344 -156 -540q-65 -83 -159 -130q-93 -46 -196 -46q-150 0 -282 95q-245 179 -245 623q0 240 75 393q79 160 214 240q108 64 236 64q218 0 364 -185l82 230h240l-167 -328h-92zM584 1047q-57 0 -93 -74
q-48 -96 -48 -289q0 -212 51 -303q34 -60 84 -60q51 0 88 63q51 86 51 292q0 371 -133 371z" />
    <glyph glyph-name="uni1EDD" unicode="&#x1edd;" horiz-adv-x="998" vert-adv-y="2457" 
d="M609 1086h-203l-180 303h287zM789 860l80 225h240l-167 -328h-61q63 -128 63 -287q0 -217 -114 -351q-120 -140 -335 -140q-204 0 -319 132q-121 138 -121 363q0 216 116 358q119 144 318 144q123 0 194 -35q45 -22 106 -81zM499 708q-37 0 -63 -45q-37 -64 -37 -186
q0 -132 44 -196q24 -34 57 -34q37 0 63 45q37 64 37 182q0 137 -44 200q-23 34 -57 34z" />
    <glyph glyph-name="uni1EDE" unicode="&#x1ede;" horiz-adv-x="1161" vert-adv-y="2457" 
d="M654 1498h-109v151q27 3 68 6q101 8 101 65q0 30 -17 45q-28 26 -70 26q-36 0 -120 -35l-36 91q116 44 198 44q84 0 138 -40q70 -51 70 -132q0 -84 -74 -124q-38 -20 -101 -20q-14 0 -48 1v-78zM1013 1107q86 -175 86 -416q0 -344 -156 -540q-65 -83 -159 -130
q-93 -46 -196 -46q-150 0 -282 95q-245 179 -245 623q0 240 75 393q79 160 214 240q108 64 236 64q218 0 364 -185l82 230h240l-167 -328h-92zM584 1047q-57 0 -93 -74q-48 -96 -48 -289q0 -212 51 -303q34 -60 84 -60q51 0 88 63q51 86 51 292q0 371 -133 371z" />
    <glyph glyph-name="uni1EDF" unicode="&#x1edf;" horiz-adv-x="998" vert-adv-y="2457" 
d="M534 1042h-109v151q27 3 68 6q101 8 101 65q0 30 -17 45q-28 26 -70 26q-36 0 -120 -36l-36 91q117 45 198 45q84 0 138 -40q70 -51 70 -132q0 -84 -74 -124q-38 -20 -101 -20q-15 0 -48 1v-78zM789 860l80 225h240l-167 -328h-61q63 -128 63 -287q0 -217 -114 -351
q-120 -140 -335 -140q-204 0 -319 132q-121 138 -121 363q0 216 116 358q119 144 318 144q123 0 194 -35q45 -22 106 -81zM499 708q-37 0 -63 -45q-37 -64 -37 -186q0 -132 44 -196q24 -34 57 -34q37 0 63 45q37 64 37 182q0 137 -44 200q-23 34 -57 34z" />
    </font>
</defs>
</svg>
