<?xml version="1.0" standalone="no"?>
<!DOCTYPE svg PUBLIC "-//W3C//DTD SVG 1.1//EN" "http://www.w3.org/Graphics/SVG/1.1/DTD/svg11.dtd" >
<svg>
<metadata>
Created by FontForge 20090622 at Thu Aug  2 13:36:11 2018
 By deploy user
(URW)++,Copyright 2010 by (URW)++ Design &#38; Development
</metadata>
<defs>
<font id="Wuerth-Book" horiz-adv-x="1365" vert-adv-y="2048" >
  <font-face 
    font-family="Wuerth Book"
    font-weight="300"
    font-stretch="normal"
    units-per-em="2048"
    panose-1="0 0 0 0 0 0 0 0 0 0"
    ascent="1569"
    descent="-479"
    x-height="851"
    cap-height="1365"
    bbox="-304 -512 2188 2075"
    underline-thickness="141"
    underline-position="-133"
    unicode-range="U+0020-U+FB04"
  />
<missing-glyph horiz-adv-x="512" vert-adv-y="2457" 
d="M51 0v1365h410v-1365h-410zM410 51v1263h-308v-1263h308z" />
    <glyph glyph-name=".notdef" horiz-adv-x="512" vert-adv-y="2457" 
d="M51 0v1365h410v-1365h-410zM410 51v1263h-308v-1263h308z" />
    <glyph glyph-name="glyph1" horiz-adv-x="0" vert-adv-y="0" 
 />
    <glyph glyph-name="glyph2" horiz-adv-x="512" vert-adv-y="2457" 
 />
    <glyph glyph-name="space" unicode=" " horiz-adv-x="512" vert-adv-y="2457" 
 />
    <glyph glyph-name="exclam" unicode="!" horiz-adv-x="571" vert-adv-y="2457" 
d="M285 182q42 0 72 -29q29 -30 29 -71q0 -43 -29 -72q-30 -30 -72 -30t-71 30q-30 30 -30 72q0 41 30 71q29 29 71 29zM210 277v1088h149v-1088h-149z" />
    <glyph glyph-name="quotedbl" unicode="&#x22;" horiz-adv-x="625" vert-adv-y="2457" 
d="M222 816h-111l-27 549h165zM514 816h-111l-27 549h165z" />
    <glyph glyph-name="numbersign" unicode="#" horiz-adv-x="1180" vert-adv-y="2457" 
d="M1119 965v-123h-225l-35 -286h210v-123h-226l-54 -438l-128 18l52 420h-290l-55 -438l-128 18l53 420h-218v123h234l35 286h-218v123h233l51 411l128 -18l-49 -393h288l51 411l128 -18l-49 -393h212zM762 842h-288l-35 -286h288z" />
    <glyph glyph-name="dollar" unicode="$" horiz-adv-x="1133" vert-adv-y="2457" 
d="M654 1377q184 -27 286 -207l-119 -78q-50 79 -94 109q-33 22 -73 31v-448q114 -50 182 -96q154 -103 154 -290q0 -162 -110 -281q-88 -95 -226 -126v-199h-120v190q-147 8 -254 103q-101 88 -137 246l146 41q16 -69 34 -105q42 -83 138 -125q30 -13 73 -17v552
q-117 49 -186 99q-135 98 -135 257q0 215 203 310q51 24 118 35v185h120v-186zM654 622v-485q68 26 108 68q75 79 75 185q0 115 -112 192q-28 19 -71 40zM534 837v397q-35 -8 -56 -19q-52 -27 -83 -80q-29 -49 -29 -104q0 -117 168 -194z" />
    <glyph glyph-name="percent" unicode="%" horiz-adv-x="1443" vert-adv-y="2457" 
d="M361 1379q143 0 233 -106q72 -85 72 -192q0 -126 -94 -216q-86 -82 -213 -82q-141 0 -231 106q-71 85 -71 197q0 120 94 210q85 83 210 83zM360 1266q-76 0 -129 -54q-54 -54 -54 -128q0 -77 54 -132q53 -54 130 -54q76 0 129 54q54 54 54 130q0 78 -54 130
q-55 54 -130 54zM1078 1392l80 -44l-795 -1374l-79 46zM1081 582q143 0 233 -107q71 -84 71 -191q0 -126 -93 -215q-86 -83 -213 -83q-141 0 -230 106q-71 85 -71 196q0 120 93 211q85 83 210 83zM1081 469q-76 0 -129 -54q-54 -54 -54 -128q0 -77 54 -132q53 -54 130 -54
q76 0 129 54q54 54 54 130q0 78 -54 130q-55 54 -130 54z" />
    <glyph glyph-name="ampersand" unicode="&#x26;" horiz-adv-x="1253" vert-adv-y="2457" 
d="M649 778l286 -367q75 78 155 180l110 -92q-75 -101 -174 -202l232 -297h-191l-148 190q-66 -60 -124 -101q-161 -115 -315 -115q-182 0 -299 131q-96 107 -96 249q0 189 184 336q44 36 167 117q-41 54 -70 102q-65 103 -65 190q0 126 89 211q81 78 209 78q133 0 215 -87
q75 -80 75 -188q0 -119 -104 -223q-40 -40 -136 -112zM526 695l-20 -13q-129 -87 -175 -129q-97 -88 -97 -192q0 -112 90 -190q67 -58 154 -58q142 0 350 191zM561 889q75 55 107 82q76 63 76 145q0 66 -46 104q-45 37 -102 37q-71 0 -115 -53q-35 -42 -35 -97
q0 -62 54 -135z" />
    <glyph glyph-name="quotesingle" unicode="'" horiz-adv-x="333" vert-adv-y="2457" 
d="M222 816h-111l-27 549h165z" />
    <glyph glyph-name="parenleft" unicode="(" horiz-adv-x="601" vert-adv-y="2457" 
d="M342 1502l130 -60q-154 -393 -154 -875q0 -483 154 -876l-130 -60q-70 150 -111 351q-60 298 -60 585q0 286 60 584q41 201 111 351z" />
    <glyph glyph-name="parenright" unicode=")" horiz-adv-x="601" vert-adv-y="2457" 
d="M260 -369l-130 60q154 394 154 875q0 482 -154 876l130 60q70 -149 111 -351q60 -298 60 -585q0 -286 -60 -584q-41 -202 -111 -351z" />
    <glyph glyph-name="asterisk" unicode="*" horiz-adv-x="1112" vert-adv-y="2457" 
d="M498 1239l-11 255h137l-11 -254l239 88l43 -130l-246 -68l158 -200l-110 -80l-141 212l-141 -212l-111 80l158 200l-245 68l42 130z" />
    <glyph glyph-name="plus" unicode="+" horiz-adv-x="1139" vert-adv-y="2457" 
d="M88 633v126h419v412h126v-412h419v-126h-419v-412h-126v412h-419z" />
    <glyph glyph-name="comma" unicode="," horiz-adv-x="464" vert-adv-y="2457" 
d="M218 200l133 -49l-205 -462l-98 39z" />
    <glyph glyph-name="hyphen" unicode="-" horiz-adv-x="371" vert-adv-y="2457" 
d="M0 502h371v-131h-371v131z" />
    <glyph glyph-name="period" unicode="." horiz-adv-x="465" vert-adv-y="2457" 
d="M232 182q42 0 72 -29q29 -30 29 -72t-29 -72q-30 -29 -72 -29t-71 30q-30 30 -30 72q0 41 30 71q29 29 71 29z" />
    <glyph glyph-name="slash" unicode="/" horiz-adv-x="994" vert-adv-y="2457" 
d="M864 1502l118 -55l-893 -1816l-118 55z" />
    <glyph glyph-name="zero" unicode="0" horiz-adv-x="1133" vert-adv-y="2457" 
d="M569 1385q145 0 268 -112q117 -106 173 -279q45 -142 45 -309q0 -296 -135 -498q-64 -95 -163 -154q-92 -55 -190 -55q-146 0 -273 117q-110 101 -166 269q-49 146 -49 324q0 194 67 358q66 164 188 256q110 83 235 83zM566 1246q-143 0 -234 -151q-104 -173 -104 -409
q0 -238 98 -408q92 -159 242 -159q141 0 233 154q104 174 104 408t-95 400q-95 165 -244 165z" />
    <glyph glyph-name="one" unicode="1" horiz-adv-x="1133" vert-adv-y="2457" 
d="M528 1223h-226l80 142h299v-1365h-153v1223z" />
    <glyph glyph-name="two" unicode="2" horiz-adv-x="1133" vert-adv-y="2457" 
d="M399 142h573v-142h-882l496 575q95 110 158 199q79 114 79 210q0 121 -93 197q-78 65 -181 65q-96 0 -170 -57q-72 -54 -92 -148q-6 -25 -10 -74h-153q14 151 69 234q54 83 143 132q97 52 212 52q183 0 308 -123q117 -115 117 -280q0 -145 -109 -294q-63 -87 -185 -227z
" />
    <glyph glyph-name="three" unicode="3" horiz-adv-x="1133" vert-adv-y="2457" 
d="M507 649v133q106 3 162 34q53 30 83 89q26 50 26 110q0 109 -77 177q-62 55 -158 55q-128 0 -187 -88q-27 -39 -43 -131h-150q20 128 63 200q47 78 132 118t185 40q178 0 283 -111q102 -108 102 -256q0 -121 -69 -213q-39 -52 -106 -89q67 -32 110 -84q85 -103 85 -246
q0 -195 -140 -310q-120 -99 -283 -99q-154 0 -267 88q-92 72 -123 183q-11 39 -15 105h147q13 -88 48 -133q36 -49 102 -78q55 -24 113 -24q119 0 200 89q68 75 68 185q0 105 -64 176q-57 63 -157 76q-23 3 -70 4z" />
    <glyph glyph-name="four" unicode="4" horiz-adv-x="1133" vert-adv-y="2457" 
d="M877 362h168v-138h-168v-224h-152v224h-700l852 1217v-1079zM725 362v617l-433 -617h433z" />
    <glyph glyph-name="five" unicode="5" horiz-adv-x="1133" vert-adv-y="2457" 
d="M963 1223h-437l-89 -292q41 8 77 8q112 0 202 -43q118 -56 186 -171q71 -118 71 -259q0 -228 -165 -369q-140 -119 -336 -119q-269 0 -418 243l121 86q118 -188 308 -188q158 0 257 117q83 97 83 228q0 155 -111 256q-94 84 -226 84q-117 0 -264 -93l198 654h543v-142z
" />
    <glyph glyph-name="six" unicode="6" horiz-adv-x="1133" vert-adv-y="2457" 
d="M674 1399l114 -86l-315 -437q67 19 127 19q174 0 295 -118q142 -139 142 -332q0 -118 -59 -225q-65 -117 -177 -181q-106 -61 -233 -61q-206 0 -346 149q-126 134 -126 312q0 159 112 315zM566 760q-132 0 -226 -94t-94 -226q0 -133 94 -227q93 -94 227 -94t226 94
q94 95 94 223q0 138 -94 230q-95 94 -227 94z" />
    <glyph glyph-name="seven" unicode="7" horiz-adv-x="1133" vert-adv-y="2457" 
d="M882 1223h-745v142h1005l-915 -1397l-119 80z" />
    <glyph glyph-name="eight" unicode="8" horiz-adv-x="1133" vert-adv-y="2457" 
d="M364 710q-60 36 -97 85q-71 95 -71 215q0 161 116 273q105 102 267 102q178 0 288 -124q94 -106 94 -250q0 -119 -77 -218q-41 -52 -94 -83q64 -31 108 -81q90 -104 90 -248q0 -186 -132 -302q-114 -101 -278 -101q-120 0 -222 58q-103 58 -155 162q-40 80 -40 178
q0 230 203 334zM578 1246q-99 0 -167 -69q-70 -71 -70 -165q0 -101 70 -171q68 -70 167 -70t168 70q69 69 69 168q0 100 -69 168q-71 69 -168 69zM574 641q-109 0 -186 -76q-77 -77 -77 -181q0 -111 77 -188t187 -77q109 0 186 77q77 76 77 184q0 110 -77 184
q-79 77 -187 77z" />
    <glyph glyph-name="nine" unicode="9" horiz-adv-x="1133" vert-adv-y="2457" 
d="M460 -33l-114 85l315 437q-67 -18 -125 -18q-176 0 -297 118q-142 138 -142 331q0 118 59 224q65 116 178 181q106 60 232 60q207 0 346 -148q127 -134 127 -311q0 -157 -114 -314zM567 1246q-133 0 -226 -94q-94 -94 -94 -222q0 -135 94 -230q93 -94 227 -94
q133 0 227 94t94 226q0 135 -94 226q-96 94 -228 94z" />
    <glyph glyph-name="colon" unicode=":" horiz-adv-x="465" vert-adv-y="2457" 
d="M232 182q42 0 72 -29q29 -30 29 -72t-29 -72q-30 -29 -72 -29t-71 30q-30 30 -30 72q0 41 30 71q29 29 71 29zM231 870q42 0 72 -29q29 -30 29 -71q0 -42 -29 -72q-30 -29 -71 -29q-42 0 -72 30q-29 29 -29 72q0 41 29 70q30 29 71 29z" />
    <glyph glyph-name="semicolon" unicode=";" horiz-adv-x="464" vert-adv-y="2457" 
d="M218 200l134 -49l-206 -462l-98 39zM265 870q41 0 71 -29q29 -29 29 -71t-29 -71q-30 -30 -71 -30q-43 0 -72 30q-29 29 -29 72q0 41 29 70q30 29 72 29z" />
    <glyph glyph-name="less" unicode="&#x3c;" horiz-adv-x="1024" vert-adv-y="2457" 
d="M955 1173v-153l-723 -330l723 -331v-153l-887 418v133z" />
    <glyph glyph-name="equal" unicode="=" horiz-adv-x="1139" vert-adv-y="2457" 
d="M87 764v119h964v-119h-964zM87 509v119h964v-119h-964z" />
    <glyph glyph-name="greater" unicode="&#x3e;" horiz-adv-x="1024" vert-adv-y="2457" 
d="M69 206v153l723 331l-723 330v153l887 -417v-133z" />
    <glyph glyph-name="question" unicode="?" horiz-adv-x="893" vert-adv-y="2457" 
d="M592 586h146q-2 -105 -39 -169q-41 -72 -115 -110q-65 -34 -141 -34q-133 0 -217 93q-76 84 -76 201q0 122 86 197q52 45 162 80q102 33 123 43q107 50 107 166q0 85 -54 136q-55 52 -132 52q-85 0 -138 -61q-42 -48 -42 -117q0 -32 12 -87h-150q-8 59 -8 95
q0 144 110 234q92 76 219 76q157 0 253 -110q79 -90 79 -218q0 -111 -63 -198q-51 -71 -158 -111q-28 -10 -120 -36q-77 -22 -106 -58q-33 -41 -33 -93q0 -64 48 -108q41 -38 99 -38q91 0 127 76q16 33 21 99zM446 182q42 0 72 -29q29 -30 29 -72t-29 -71q-30 -30 -72 -30
t-71 30q-30 30 -30 72q0 41 30 71q29 29 71 29z" />
    <glyph glyph-name="at" unicode="@" horiz-adv-x="1429" vert-adv-y="2457" 
d="M1089 1040l-55 -464q-7 -55 -7 -93q0 -66 55 -66q28 0 52 17q52 37 83 100q53 109 53 233q0 228 -154 365q-151 134 -374 134q-245 0 -413 -170q-165 -168 -165 -412q0 -232 148 -396q166 -186 458 -186q212 0 407 92l42 20l44 -120q-242 -118 -490 -118q-232 0 -399 96
q-153 89 -245 245q-98 167 -98 367q0 197 95 360q90 153 246 245q169 100 371 100q199 0 359 -96q136 -81 211 -211q80 -137 80 -303q0 -159 -72 -299q-58 -114 -145 -161q-57 -31 -113 -31q-109 0 -148 120q-48 -53 -85 -77q-72 -47 -165 -47q-149 0 -246 105
q-98 106 -98 267q0 184 123 300q107 101 259 101q149 0 241 -116l11 99h134zM715 924q-99 0 -168 -75q-71 -77 -71 -198q0 -102 55 -167q56 -67 141 -67q100 0 171 87q73 89 73 204q0 98 -58 156q-59 60 -143 60z" />
    <glyph glyph-name="A" unicode="A" horiz-adv-x="1242" vert-adv-y="2457" 
d="M914 386h-583l-165 -386h-166l629 1430l613 -1430h-167zM854 528l-228 547l-233 -547h461z" />
    <glyph glyph-name="B" unicode="B" horiz-adv-x="1056" vert-adv-y="2457" 
d="M164 0v1365h247q144 0 224 -34q109 -45 167 -152q46 -85 46 -182q0 -122 -64 -202q-21 -26 -71 -66q87 -26 140 -73t85 -121t32 -154q0 -175 -138 -287q-70 -56 -142 -74q-77 -20 -185 -20h-341zM317 763h115q98 0 142 19q68 30 101 99q24 49 24 111q0 117 -73 179
q-60 52 -190 52h-119v-460zM317 142h174q116 0 172 22q81 33 123 104q31 54 31 119q0 86 -53 152q-54 67 -156 85q-49 9 -137 9h-154v-491z" />
    <glyph glyph-name="C" unicode="C" horiz-adv-x="1293" vert-adv-y="2457" 
d="M1204 1253v-189q-87 83 -162 120q-123 61 -251 61q-146 0 -275 -78q-140 -84 -214 -230q-62 -122 -62 -261q0 -254 188 -416q163 -142 364 -142q151 0 291 84q51 30 121 95v-189q-194 -133 -411 -133q-172 0 -327 82q-197 104 -300 298q-80 152 -80 322q0 176 85 334
q97 181 273 282q165 95 357 95q148 0 279 -60q52 -25 124 -75z" />
    <glyph glyph-name="D" unicode="D" horiz-adv-x="1267" vert-adv-y="2457" 
d="M164 0v1365h280q213 0 351 -62q202 -92 306 -287q80 -148 80 -333q0 -327 -240 -525q-123 -103 -263 -135q-102 -23 -236 -23h-278zM317 142h133q242 0 391 125q186 156 186 415q0 174 -90 311q-153 230 -487 230h-133v-1081z" />
    <glyph glyph-name="E" unicode="E" horiz-adv-x="960" vert-adv-y="2457" 
d="M871 1223h-554v-405h539v-142h-539v-534h554v-142h-707v1365h707v-142z" />
    <glyph glyph-name="F" unicode="F" horiz-adv-x="860" vert-adv-y="2457" 
d="M785 1223h-468v-405h453v-142h-453v-676h-153v1365h621v-142z" />
    <glyph glyph-name="G" unicode="G" horiz-adv-x="1519" vert-adv-y="2457" 
d="M864 685h569q0 -156 -19 -240q-44 -204 -227 -338q-179 -132 -401 -132q-181 0 -342 91q-181 103 -278 286q-81 153 -81 327q0 203 107 375q101 162 271 251q157 83 336 83q236 0 418 -139q68 -52 157 -158l-112 -102q-70 92 -129 139q-146 117 -334 117q-138 0 -261 -66
q-143 -76 -223 -215q-76 -131 -76 -287q0 -243 176 -406q166 -153 373 -153q182 0 328 119q119 98 145 239q5 26 8 67h-405v142z" />
    <glyph glyph-name="H" unicode="H" horiz-adv-x="1331" vert-adv-y="2457" 
d="M317 810h698v555h153v-1365h-153v668h-698v-668h-153v1365h153v-555z" />
    <glyph glyph-name="I" unicode="I" horiz-adv-x="481" vert-adv-y="2457" 
d="M317 1365v-1365h-153v1365h153z" />
    <glyph glyph-name="J" unicode="J" horiz-adv-x="602" vert-adv-y="2457" 
d="M438 1365v-1103q0 -134 -23 -203q-39 -116 -142 -168q-63 -33 -136 -33q-121 0 -246 102l85 117q34 -31 55 -44q48 -32 103 -32q80 0 121 70q30 53 30 191v1103h153z" />
    <glyph glyph-name="K" unicode="K" horiz-adv-x="1137" vert-adv-y="2457" 
d="M317 779l582 586h204l-640 -636l661 -729h-209l-559 626l-39 -38v-588h-153v1365h153v-586z" />
    <glyph glyph-name="L" unicode="L" horiz-adv-x="706" vert-adv-y="2457" 
d="M317 1365v-1223h375v-142h-528v1365h153z" />
    <glyph glyph-name="M" unicode="M" horiz-adv-x="1739" vert-adv-y="2457" 
d="M116 0l226 1443l524 -1154l536 1154l212 -1443h-156l-128 950l-465 -1007l-459 1007l-134 -950h-156z" />
    <glyph glyph-name="N" unicode="N" horiz-adv-x="1544" vert-adv-y="2457" 
d="M164 0v1422l1064 -1114v1057h153v-1427l-1064 1114v-1052h-153z" />
    <glyph glyph-name="O" unicode="O" horiz-adv-x="1593" vert-adv-y="2457" 
d="M798 1388q189 0 349 -94q168 -97 264 -260q96 -164 96 -353t-97 -354q-93 -158 -252 -252q-169 -100 -368 -100q-180 0 -347 94q-176 101 -270 271q-87 157 -87 350q0 291 225 503q112 106 258 156q116 39 229 39zM797 1245q-254 0 -421 -195q-136 -158 -136 -361
q0 -252 174 -416q90 -84 205 -125q87 -30 173 -30q155 0 289 81q132 78 203 209q69 126 69 273q0 239 -170 407q-89 87 -205 126q-91 31 -181 31z" />
    <glyph glyph-name="P" unicode="P" horiz-adv-x="909" vert-adv-y="2457" 
d="M317 598v-598h-153v1365h248q163 0 249 -37q124 -53 183 -175q38 -80 38 -172q0 -111 -54 -204q-104 -179 -378 -179h-133zM317 737h124q144 0 218 67q73 67 73 179q0 116 -75 179q-73 61 -227 61h-113v-486z" />
    <glyph glyph-name="Q" unicode="Q" horiz-adv-x="1596" vert-adv-y="2457" 
d="M1515 -14h-194l-115 123q-185 -134 -413 -134q-186 0 -352 95q-175 100 -269 270q-86 155 -86 338q0 181 85 337q89 164 250 265q175 108 376 108q185 0 351 -95q176 -101 272 -275q87 -159 87 -344q0 -195 -100 -356q-34 -54 -96 -124zM970 549l234 -246q71 79 102 147
q47 104 47 227q0 241 -163 405q-164 163 -394 163q-164 0 -301 -88q-122 -79 -190 -207q-65 -124 -65 -272q0 -244 171 -404q166 -155 380 -155q171 0 308 98l-329 332h200z" />
    <glyph glyph-name="R" unicode="R" horiz-adv-x="1001" vert-adv-y="2457" 
d="M520 611l434 -611h-186l-412 599h-39v-599h-153v1365h221q144 0 226 -26q132 -42 197 -151q55 -91 55 -206q0 -200 -148 -303q-85 -59 -195 -68zM317 733h95q139 0 212 55q89 68 89 194q0 134 -99 197q-71 44 -206 44h-91v-490z" />
    <glyph glyph-name="S" unicode="S" horiz-adv-x="1032" vert-adv-y="2457" 
d="M893 1175l-120 -79q-40 63 -71 90q-65 59 -163 59q-105 0 -168 -68q-58 -62 -58 -143q0 -89 85 -147q50 -33 107 -58l130 -57q167 -74 234 -157q75 -92 75 -220q0 -190 -143 -315q-121 -105 -291 -105q-215 0 -339 165q-55 73 -82 188l148 41q20 -93 55 -141
q36 -50 94 -79q61 -31 130 -31q118 0 198 83q76 78 76 186q0 123 -113 194q-52 33 -242 118q-151 69 -212 146q-64 81 -64 191q0 173 136 273q108 79 246 79q230 0 352 -213z" />
    <glyph glyph-name="T" unicode="T" horiz-adv-x="842" vert-adv-y="2457" 
d="M497 1223v-1223h-153v1223h-330v142h815v-142h-332z" />
    <glyph glyph-name="U" unicode="U" horiz-adv-x="1301" vert-adv-y="2457" 
d="M317 1365v-836q0 -129 15 -187q26 -102 119 -164q91 -60 199 -60q126 0 225 78q81 65 100 173q9 52 9 160v836h153v-878q0 -142 -34 -227q-56 -137 -195 -217q-119 -68 -258 -68q-163 0 -297 93q-127 89 -167 227q-22 74 -22 192v878h153z" />
    <glyph glyph-name="V" unicode="V" horiz-adv-x="1108" vert-adv-y="2457" 
d="M167 1365l388 -1041l387 1041h166l-555 -1446l-553 1446h167z" />
    <glyph glyph-name="W" unicode="W" horiz-adv-x="1929" vert-adv-y="2457" 
d="M167 1365l363 -1024l428 1094l404 -1094l401 1024h166l-572 -1436l-402 1092l-431 -1093l-524 1437h167z" />
    <glyph glyph-name="X" unicode="X" horiz-adv-x="1001" vert-adv-y="2457" 
d="M418 706l-368 659h172l283 -514l289 514h175l-377 -659l396 -706h-171l-314 560l-317 -560h-172z" />
    <glyph glyph-name="Y" unicode="Y" horiz-adv-x="1054" vert-adv-y="2457" 
d="M447 587l-447 778h176l348 -609l353 609h177l-454 -778v-587h-153v587z" />
    <glyph glyph-name="Z" unicode="Z" horiz-adv-x="1067" vert-adv-y="2457" 
d="M287 142h726v-142h-979l745 1223h-649v142h902z" />
    <glyph glyph-name="bracketleft" unicode="[" horiz-adv-x="597" vert-adv-y="2457" 
d="M314 1356v-1578h194v-138h-344v1854h344v-138h-194z" />
    <glyph glyph-name="backslash" unicode="\" horiz-adv-x="972" vert-adv-y="2457" 
d="M118 1502l893 -1816l-118 -55l-893 1816z" />
    <glyph glyph-name="bracketright" unicode="]" horiz-adv-x="597" vert-adv-y="2457" 
d="M283 -222v1578h-194v138h344v-1854h-344v138h194z" />
    <glyph glyph-name="asciicircum" unicode="^" horiz-adv-x="1024" vert-adv-y="2457" 
d="M216 745h-166l361 625h202l361 -625h-167l-296 502z" />
    <glyph glyph-name="underscore" unicode="_" horiz-adv-x="1024" vert-adv-y="2457" 
d="M0 -132h1024v-141h-1024v141z" />
    <glyph glyph-name="grave" unicode="`" horiz-adv-x="975" vert-adv-y="2457" 
d="M208 1275l151 68l216 -296l-91 -51z" />
    <glyph glyph-name="a" unicode="a" horiz-adv-x="1051" vert-adv-y="2457" 
d="M774 851h146v-851h-146v118q-120 -143 -293 -143q-190 0 -309 145q-101 122 -101 307q0 215 135 339q115 105 272 105q176 0 296 -141v121zM500 739q-124 0 -206 -95q-74 -86 -74 -213q0 -153 89 -244q78 -80 190 -80q137 0 220 106q65 83 65 213q0 153 -89 235
q-84 78 -195 78z" />
    <glyph glyph-name="b" unicode="b" horiz-adv-x="1051" vert-adv-y="2457" 
d="M277 1494v-765q121 141 297 141q185 0 304 -140q102 -119 102 -303q0 -214 -133 -341q-116 -111 -276 -111q-177 0 -294 143v-118h-146v1494h146zM553 738q-132 0 -219 -101q-67 -78 -67 -212q0 -151 89 -239q80 -79 194 -79q133 0 213 103q68 89 68 210q0 156 -96 246
q-77 72 -182 72z" />
    <glyph glyph-name="c" unicode="c" horiz-adv-x="866" vert-adv-y="2457" 
d="M788 789v-192q-67 75 -117 102q-71 39 -151 39q-136 0 -222 -101q-78 -90 -78 -215q0 -131 84 -223q84 -91 214 -91q100 0 184 59q36 26 91 90v-193q-136 -89 -270 -89q-218 0 -349 159q-103 125 -103 286q0 192 137 327q125 123 316 123q140 0 264 -81z" />
    <glyph glyph-name="d" unicode="d" horiz-adv-x="1051" vert-adv-y="2457" 
d="M774 1494h146v-1494h-146v118q-117 -143 -294 -143q-188 0 -308 145q-101 122 -101 307q0 213 136 338q114 105 270 105q176 0 297 -141v765zM500 738q-124 0 -206 -95q-74 -86 -74 -212q0 -153 89 -245q78 -79 191 -79q137 0 219 105q65 84 65 214q0 152 -89 234
q-83 78 -195 78z" />
    <glyph glyph-name="e" unicode="e" horiz-adv-x="959" vert-adv-y="2457" 
d="M888 395h-663q4 -87 36 -147q36 -67 98 -104t136 -37q108 0 181 71q35 33 81 108l123 -69q-51 -89 -105 -137q-118 -105 -285 -105q-204 0 -324 148q-95 118 -95 297q0 207 121 332q114 118 291 118q160 0 271 -100q134 -120 134 -349v-26zM734 518q-14 71 -49 119
q-75 101 -200 101q-131 0 -209 -113q-31 -46 -42 -107h500z" />
    <glyph glyph-name="f" unicode="f" horiz-adv-x="494" vert-adv-y="2457" 
d="M290 716v-716h-146v716h-81v135h81v360q0 150 50 215q69 91 203 91q47 0 106 -18v-148q-56 21 -97 21q-67 0 -93 -41q-23 -36 -23 -153v-327h213v-135h-213z" />
    <glyph glyph-name="g" unicode="g" horiz-adv-x="1052" vert-adv-y="2457" 
d="M922 851v-832q0 -159 -28 -235q-48 -133 -173 -203q-98 -55 -222 -55q-187 0 -300 113q-106 106 -112 278h145q8 -94 39 -144q35 -54 98 -84t134 -30q147 0 218 104q55 79 55 231v124q-125 -141 -300 -141q-178 0 -298 137q-106 122 -106 308q0 207 128 334
q116 115 283 115q177 0 293 -141v121h146zM500 739q-138 0 -220 -114q-59 -82 -59 -201q0 -143 77 -225q83 -90 200 -90q135 0 220 105q65 79 65 208q0 159 -92 242q-83 75 -191 75z" />
    <glyph glyph-name="h" unicode="h" horiz-adv-x="945" vert-adv-y="2457" 
d="M131 1494h146v-743q40 47 73 69q73 50 171 50q105 0 184 -56q78 -56 99 -158q10 -48 10 -129v-527h-146v517q0 102 -28 151q-41 70 -148 70q-132 0 -181 -101q-34 -70 -34 -212v-425h-146v1494z" />
    <glyph glyph-name="i" unicode="i" horiz-adv-x="409" vert-adv-y="2457" 
d="M277 851v-851h-146v851h146zM205 1275q43 0 73 -30q31 -31 31 -74q0 -44 -31 -74q-30 -31 -74 -31q-43 0 -73 31q-31 31 -31 75q0 42 31 73q31 30 74 30z" />
    <glyph glyph-name="j" unicode="j" horiz-adv-x="409" vert-adv-y="2457" 
d="M277 851v-1330h-146v1330h146zM205 1275q43 0 73 -30q31 -31 31 -74q0 -44 -31 -74q-30 -31 -74 -31q-43 0 -73 31q-31 31 -31 75q0 42 31 73q31 30 74 30z" />
    <glyph glyph-name="k" unicode="k" horiz-adv-x="843" vert-adv-y="2457" 
d="M277 1494v-957l308 314h194l-364 -362l433 -489h-191l-344 387l-36 -37v-350h-146v1494h146z" />
    <glyph glyph-name="l" unicode="l" horiz-adv-x="408" vert-adv-y="2457" 
d="M277 1494v-1494h-146v1494h146z" />
    <glyph glyph-name="m" unicode="m" horiz-adv-x="1376" vert-adv-y="2457" 
d="M131 851h146v-91q34 46 63 66q63 46 147 46q158 0 233 -139q81 139 249 139q98 0 172 -54q74 -55 95 -158q9 -47 9 -120v-540h-146v516q0 107 -28 157q-37 66 -124 66q-183 0 -183 -267v-472h-146v505q0 234 -157 234q-64 0 -115 -44q-69 -61 -69 -232v-463h-146v851z
" />
    <glyph glyph-name="n" unicode="n" horiz-adv-x="943" vert-adv-y="2457" 
d="M131 851h146v-103q40 49 72 72q71 51 172 51q105 0 183 -56q77 -54 98 -159q10 -49 10 -128v-528h-146v503q0 119 -28 165q-43 71 -150 71q-128 0 -176 -101q-35 -72 -35 -213v-425h-146v851z" />
    <glyph glyph-name="o" unicode="o" horiz-adv-x="1040" vert-adv-y="2457" 
d="M520 870q201 0 334 -146q115 -126 115 -301q0 -204 -149 -336q-126 -112 -303 -112q-122 0 -228 62q-108 64 -166 175q-52 98 -52 218q0 186 140 319q128 121 309 121zM519 738q-146 0 -232 -110q-67 -86 -67 -201q0 -147 89 -236q84 -84 207 -84q150 0 238 109
q66 83 66 206q0 144 -90 232q-85 84 -211 84z" />
    <glyph glyph-name="p" unicode="p" horiz-adv-x="1051" vert-adv-y="2457" 
d="M277 -479h-146v1330h146l-1 -120q122 140 294 140q190 0 309 -145q101 -121 101 -306q0 -215 -135 -339q-115 -106 -271 -106q-175 0 -297 144v-598zM552 739q-135 0 -218 -106q-67 -85 -67 -213q0 -150 90 -235q84 -78 195 -78q125 0 205 95q74 87 74 213q0 152 -89 245
q-77 79 -190 79z" />
    <glyph glyph-name="q" unicode="q" horiz-adv-x="1051" vert-adv-y="2457" 
d="M774 -479v598q-122 -144 -297 -144q-184 0 -304 140q-102 120 -102 305q0 214 133 340q115 111 276 111q178 0 294 -140v120h146v-1330h-146zM502 739q-132 0 -213 -104q-69 -88 -69 -209q0 -157 96 -247q78 -72 182 -72q133 0 220 102q66 77 66 211q0 151 -89 240
q-79 79 -193 79z" />
    <glyph glyph-name="r" unicode="r" horiz-adv-x="584" vert-adv-y="2457" 
d="M131 851h146v-92q42 51 67 72q50 41 125 41q63 0 130 -37l-69 -132q-45 30 -85 30q-57 0 -103 -39q-42 -36 -56 -108q-9 -51 -9 -138v-448h-146v851z" />
    <glyph glyph-name="s" unicode="s" horiz-adv-x="719" vert-adv-y="2457" 
d="M598 716l-121 -63q-45 85 -118 85q-47 0 -78 -34q-24 -25 -24 -61q0 -41 36 -69q27 -21 101 -52q115 -48 162 -82q93 -68 93 -187q0 -125 -91 -205q-83 -73 -200 -73q-213 0 -297 217l128 54q25 -51 44 -76q47 -63 127 -63q71 0 110 48q30 38 30 86q0 53 -38 88
q-24 22 -100 55q-117 50 -170 88q-75 55 -75 159q0 111 80 178q73 61 168 61q154 0 233 -154z" />
    <glyph glyph-name="t" unicode="t" horiz-adv-x="447" vert-adv-y="2457" 
d="M290 716v-716h-146v716h-89v135h89v305h146v-305h150v-135h-150z" />
    <glyph glyph-name="u" unicode="u" horiz-adv-x="937" vert-adv-y="2457" 
d="M277 851v-497q0 -110 26 -159q23 -43 70 -66q44 -22 95 -22q76 0 128 43q46 38 57 108q6 36 6 96v497h146v-513q0 -121 -30 -185q-42 -92 -137 -140q-76 -38 -170 -38q-164 0 -260 107q-51 57 -66 126q-11 54 -11 130v513h146z" />
    <glyph glyph-name="v" unicode="v" horiz-adv-x="837" vert-adv-y="2457" 
d="M165 851l254 -572l253 572h163l-417 -906l-417 906h164z" />
    <glyph glyph-name="w" unicode="w" horiz-adv-x="1367" vert-adv-y="2457" 
d="M166 851l251 -575l265 641l265 -641l255 575h164l-422 -910l-262 634l-264 -634l-417 910h165z" />
    <glyph glyph-name="x" unicode="x" horiz-adv-x="911" vert-adv-y="2457" 
d="M367 454l-310 397h178l222 -290l222 290h181l-312 -397l354 -454h-176l-269 347l-271 -347h-182z" />
    <glyph glyph-name="y" unicode="y" horiz-adv-x="912" vert-adv-y="2457" 
d="M392 81l-391 770h169l300 -609l275 609h165l-628 -1330h-165z" />
    <glyph glyph-name="z" unicode="z" horiz-adv-x="921" vert-adv-y="2457" 
d="M295 135h586v-135h-880l615 716h-501v135h792z" />
    <glyph glyph-name="braceleft" unicode="{" horiz-adv-x="575" vert-adv-y="2457" 
d="M236 565q74 -41 103 -106q21 -47 21 -136v-370q0 -90 13 -122q16 -41 56 -55q23 -8 94 -8v-128q-39 -1 -57 -1q-132 0 -190 63q-65 71 -65 239v377q0 101 -33 142q-28 35 -84 50v121q58 15 86 52q31 41 31 129v400q0 155 67 221q61 60 191 60q2 0 54 -1v-128
q-61 0 -78 -4q-46 -10 -65 -43q-20 -37 -20 -131v-383q0 -108 -34 -163q-24 -40 -90 -75z" />
    <glyph glyph-name="bar" unicode="|" horiz-adv-x="1024" vert-adv-y="2457" 
d="M435 1365h154v-1706h-154v1706z" />
    <glyph glyph-name="braceright" unicode="}" horiz-adv-x="575" vert-adv-y="2457" 
d="M339 568q-74 41 -103 106q-21 47 -21 136v370q0 90 -13 122q-16 41 -56 55q-23 8 -93 8v128q39 1 56 1q132 0 190 -63q65 -71 65 -239v-377q0 -101 33 -142q29 -35 85 -50v-121q-58 -15 -87 -52q-31 -40 -31 -129v-400q0 -156 -67 -222q-61 -60 -190 -60q-20 0 -54 2v128
q15 -1 19 -1q78 0 107 27q36 33 36 152v383q0 108 34 163q24 40 90 75z" />
    <glyph glyph-name="asciitilde" unicode="~" vert-adv-y="2457" 
d="M279 1192l-89 57q42 85 75 129q81 107 206 107q76 0 229 -70q104 -47 135 -55q33 -9 63 -9q71 0 120 49q30 30 66 89l91 -53q-56 -112 -113 -161q-81 -70 -183 -70q-35 0 -90 17q-56 18 -196 81q-81 36 -133 36q-67 0 -118 -54q-30 -32 -63 -93z" />
    <glyph glyph-name="Adieresis" unicode="&#xc4;" horiz-adv-x="1242" vert-adv-y="2457" 
d="M914 386h-583l-165 -386h-166l629 1430l613 -1430h-167zM854 528l-228 547l-233 -547h461zM436 1738q44 0 74 -31q31 -30 31 -73q0 -44 -31 -74q-30 -31 -73 -31q-44 0 -74 31q-31 31 -31 75q0 42 31 72q31 31 73 31zM825 1738q44 0 74 -31q31 -30 31 -73t-31 -74
q-30 -31 -73 -31q-44 0 -74 31q-31 31 -31 75q0 42 31 72q31 31 73 31z" />
    <glyph glyph-name="Aring" unicode="&#xc5;" horiz-adv-x="1242" vert-adv-y="2457" 
d="M914 386h-583l-165 -386h-166l629 1430l613 -1430h-167zM854 528l-228 547l-233 -547h461zM628 1835q77 0 132 -54q54 -54 54 -131t-54 -132q-55 -54 -132 -54t-131 54q-55 55 -55 134q0 75 55 129t131 54zM628 1735q-36 0 -61 -25t-25 -59q0 -37 25 -62t61 -25
q35 0 61 25q25 25 25 61t-25 60q-26 25 -61 25z" />
    <glyph glyph-name="Ccedilla" unicode="&#xc7;" horiz-adv-x="1293" vert-adv-y="2457" 
d="M1204 1253v-189q-87 83 -162 120q-123 61 -251 61q-146 0 -275 -78q-140 -84 -214 -230q-62 -122 -62 -261q0 -254 188 -416q163 -142 365 -142q150 0 290 84q51 30 121 95v-189q-194 -133 -411 -133q-172 0 -327 82q-197 104 -300 298q-80 152 -80 322q0 176 85 334
q97 181 273 282q165 95 357 95q148 0 279 -61q51 -24 124 -74zM871 -162l-226 -265l-104 53l184 278z" />
    <glyph glyph-name="Eacute" unicode="&#xc9;" horiz-adv-x="960" vert-adv-y="2457" 
d="M871 1223h-554v-405h539v-142h-539v-534h554v-142h-707v1365h707v-142zM777 1715l-294 -239l-88 65l245 265z" />
    <glyph glyph-name="Ntilde" unicode="&#xd1;" horiz-adv-x="1544" vert-adv-y="2457" 
d="M164 0v1422l1064 -1114v1057h153v-1427l-1064 1114v-1052h-153zM570 1528l-87 69q73 146 181 146q47 0 131 -43q80 -41 113 -41q50 0 93 87l88 -66q-71 -148 -187 -148q-49 0 -133 43q-83 41 -115 41q-31 0 -54 -32q-9 -14 -30 -56z" />
    <glyph glyph-name="Odieresis" unicode="&#xd6;" horiz-adv-x="1593" vert-adv-y="2457" 
d="M798 1388q189 0 349 -94q168 -97 264 -260q96 -164 96 -353t-97 -354q-93 -158 -252 -252q-169 -100 -368 -100q-180 0 -347 94q-176 101 -270 271q-87 157 -87 350q0 291 225 503q112 106 258 156q116 39 229 39zM797 1245q-254 0 -421 -195q-136 -158 -136 -361
q0 -252 174 -416q90 -84 205 -125q87 -30 173 -30q155 0 289 81q132 78 203 209q69 126 69 273q0 239 -170 407q-89 87 -205 126q-91 31 -181 31zM602 1738q44 0 74 -31q31 -30 31 -73q0 -44 -31 -74q-30 -31 -73 -31q-44 0 -74 31q-31 31 -31 75q0 42 31 72q31 31 73 31z
M991 1738q44 0 74 -31q31 -30 31 -73q0 -44 -31 -74q-30 -31 -73 -31q-44 0 -74 31q-31 31 -31 75q0 42 31 72q31 31 73 31z" />
    <glyph glyph-name="Udieresis" unicode="&#xdc;" horiz-adv-x="1301" vert-adv-y="2457" 
d="M317 1365v-836q0 -129 15 -187q26 -102 119 -164q91 -60 199 -60q126 0 225 78q81 65 100 173q9 52 9 160v836h153v-878q0 -142 -34 -227q-56 -137 -195 -217q-119 -68 -258 -68q-163 0 -297 93q-127 89 -167 227q-22 74 -22 192v878h153zM456 1738q44 0 74 -31
q31 -30 31 -73q0 -44 -31 -74q-30 -31 -73 -31q-44 0 -74 31q-31 31 -31 75q0 42 31 72q31 31 73 31zM845 1738q44 0 74 -31q31 -30 31 -73q0 -44 -31 -74q-30 -31 -73 -31q-44 0 -74 31q-31 31 -31 75q0 42 31 72q31 31 73 31z" />
    <glyph glyph-name="aacute" unicode="&#xe1;" horiz-adv-x="1050" vert-adv-y="2457" 
d="M775 851h146v-851h-146v118q-120 -143 -293 -143q-190 0 -309 145q-101 122 -101 307q0 215 135 339q115 105 272 105q176 0 296 -141v121zM501 739q-124 0 -206 -95q-74 -86 -74 -213q0 -153 89 -244q78 -80 190 -80q137 0 220 106q65 83 65 213q0 153 -89 235
q-84 78 -195 78zM789 1275l-276 -279l-91 51l216 296z" />
    <glyph glyph-name="agrave" unicode="&#xe0;" horiz-adv-x="1050" vert-adv-y="2457" 
d="M775 851h146v-851h-146v118q-120 -143 -293 -143q-190 0 -309 145q-101 122 -101 307q0 215 135 339q115 105 272 105q176 0 296 -141v121zM501 739q-124 0 -206 -95q-74 -86 -74 -213q0 -153 89 -244q78 -80 190 -80q137 0 220 106q65 83 65 213q0 153 -89 235
q-84 78 -195 78zM279 1275l151 68l216 -296l-91 -51z" />
    <glyph glyph-name="acircumflex" unicode="&#xe2;" horiz-adv-x="1050" vert-adv-y="2457" 
d="M775 851h146v-851h-146v118q-120 -143 -293 -143q-190 0 -309 145q-101 122 -101 307q0 215 135 339q115 105 272 105q176 0 296 -141v121zM501 739q-124 0 -206 -95q-74 -86 -74 -213q0 -153 89 -244q78 -80 190 -80q137 0 220 106q65 83 65 213q0 153 -89 235
q-84 78 -195 78zM247 1077l283 266l284 -266l-105 -80l-179 169l-180 -170z" />
    <glyph glyph-name="adieresis" unicode="&#xe4;" horiz-adv-x="1050" vert-adv-y="2457" 
d="M775 851h146v-851h-146v118q-120 -143 -293 -143q-190 0 -309 145q-101 122 -101 307q0 215 135 339q115 105 272 105q176 0 296 -141v121zM501 739q-124 0 -206 -95q-74 -86 -74 -213q0 -153 89 -244q78 -80 190 -80q137 0 220 106q65 83 65 213q0 153 -89 235
q-84 78 -195 78zM353 1249q43 0 73 -30t30 -72q0 -43 -30 -73q-31 -30 -73 -30t-72 30t-30 74q0 41 30 71t72 30zM709 1249q42 0 72 -30t30 -72q0 -43 -30 -73t-72 -30q-43 0 -73 30t-30 74q0 41 30 71q31 30 73 30z" />
    <glyph glyph-name="atilde" unicode="&#xe3;" horiz-adv-x="1050" vert-adv-y="2457" 
d="M775 851h146v-851h-146v118q-120 -143 -293 -143q-190 0 -309 145q-101 122 -101 307q0 215 135 339q115 105 272 105q176 0 296 -141v121zM501 739q-124 0 -206 -95q-74 -86 -74 -213q0 -153 89 -244q78 -80 190 -80q137 0 220 106q65 83 65 213q0 153 -89 235
q-84 78 -195 78zM326 1037l-85 69q19 52 52 87q54 59 124 59q56 0 127 -44q66 -40 95 -40q53 0 96 87l85 -66q-20 -52 -51 -85q-60 -63 -129 -63q-44 0 -117 42q-76 44 -110 44q-59 0 -87 -90z" />
    <glyph glyph-name="aring" unicode="&#xe5;" horiz-adv-x="1050" vert-adv-y="2457" 
d="M775 851h146v-851h-146v118q-120 -143 -293 -143q-190 0 -309 145q-101 122 -101 307q0 215 135 339q115 105 272 105q176 0 296 -141v121zM501 739q-124 0 -206 -95q-74 -86 -74 -213q0 -153 89 -244q78 -80 190 -80q137 0 220 106q65 83 65 213q0 153 -89 235
q-84 78 -195 78zM530 1361q77 0 132 -54q54 -54 54 -131t-54 -132q-55 -54 -131 -54q-78 0 -132 54q-54 55 -54 134q0 75 54 129q55 54 131 54zM530 1261q-35 0 -60 -25t-25 -59q0 -37 25 -62t61 -25q35 0 60 25t25 61t-25 60q-26 25 -61 25z" />
    <glyph glyph-name="ccedilla" unicode="&#xe7;" horiz-adv-x="867" vert-adv-y="2457" 
d="M789 789v-192q-67 75 -117 102q-71 39 -151 39q-136 0 -223 -101q-77 -90 -77 -215q0 -131 84 -223q84 -91 214 -91q100 0 184 59q36 26 91 90v-193q-136 -89 -270 -89q-218 0 -349 159q-103 125 -103 286q0 192 137 327q125 123 316 123q140 0 264 -81zM601 -151
l-207 -263l-101 51l172 267z" />
    <glyph glyph-name="eacute" unicode="&#xe9;" horiz-adv-x="961" vert-adv-y="2457" 
d="M889 395h-663q4 -87 36 -147q36 -67 98 -104t136 -37q108 0 181 71q35 33 81 108l123 -69q-51 -89 -105 -137q-118 -105 -285 -105q-204 0 -324 148q-95 118 -95 297q0 207 121 332q114 118 291 118q160 0 271 -100q134 -120 134 -349v-26zM735 518q-14 71 -49 119
q-75 101 -200 101q-131 0 -209 -113q-31 -46 -42 -107h500zM759 1275l-275 -279l-92 51l216 296z" />
    <glyph glyph-name="egrave" unicode="&#xe8;" horiz-adv-x="961" vert-adv-y="2457" 
d="M889 395h-663q4 -87 36 -147q36 -67 98 -104t136 -37q108 0 181 71q35 33 81 108l123 -69q-51 -89 -105 -137q-118 -105 -285 -105q-204 0 -324 148q-95 118 -95 297q0 207 121 332q114 118 291 118q160 0 271 -100q134 -120 134 -349v-26zM735 518q-14 71 -49 119
q-75 101 -200 101q-131 0 -209 -113q-31 -46 -42 -107h500zM242 1275l152 68l215 -296l-91 -51z" />
    <glyph glyph-name="ecircumflex" unicode="&#xea;" horiz-adv-x="961" vert-adv-y="2457" 
d="M889 395h-663q4 -87 36 -147q36 -67 98 -104t136 -37q108 0 181 71q35 33 81 108l123 -69q-51 -89 -105 -137q-118 -105 -285 -105q-204 0 -324 148q-95 118 -95 297q0 207 121 332q114 118 291 118q160 0 271 -100q134 -120 134 -349v-26zM735 518q-14 71 -49 119
q-75 101 -200 101q-131 0 -209 -113q-31 -46 -42 -107h500zM218 1077l282 266l284 -266l-105 -80l-179 169l-180 -170z" />
    <glyph glyph-name="edieresis" unicode="&#xeb;" horiz-adv-x="961" vert-adv-y="2457" 
d="M889 395h-663q4 -87 36 -147q36 -67 98 -104t136 -37q108 0 181 71q35 33 81 108l123 -69q-51 -89 -105 -137q-118 -105 -285 -105q-204 0 -324 148q-95 118 -95 297q0 207 121 332q114 118 291 118q160 0 271 -100q134 -120 134 -349v-26zM735 518q-14 71 -49 119
q-75 101 -200 101q-131 0 -209 -113q-31 -46 -42 -107h500zM323 1249q43 0 73 -30t30 -72q0 -43 -30 -73q-31 -30 -73 -30t-72 30q-30 31 -30 74q0 41 30 71t72 30zM679 1249q42 0 72 -30t30 -72q0 -43 -30 -73t-72 -30t-73 30q-30 31 -30 74q0 41 30 71q31 30 73 30z" />
    <glyph glyph-name="iacute" unicode="&#xed;" horiz-adv-x="403" vert-adv-y="2457" 
d="M275 851v-851h-146v851h146zM440 1275l-242 -279l-84 51l175 296z" />
    <glyph glyph-name="igrave" unicode="&#xec;" horiz-adv-x="403" vert-adv-y="2457" 
d="M275 851v-851h-146v851h146zM-36 1275l151 68l175 -296l-84 -51z" />
    <glyph glyph-name="icircumflex" unicode="&#xee;" horiz-adv-x="403" vert-adv-y="2457" 
d="M274 851v-851h-146v851h146zM-41 1077l241 266l244 -266l-98 -80l-146 169l-145 -170z" />
    <glyph glyph-name="idieresis" unicode="&#xef;" horiz-adv-x="403" vert-adv-y="2457" 
d="M275 851v-851h-146v851h146zM69 1246q41 0 70 -29q29 -28 29 -69t-29 -70t-70 -29t-69 29q-29 29 -29 71q0 40 29 68q29 29 69 29zM335 1246q41 0 69 -29q29 -28 29 -69t-29 -70q-28 -29 -69 -29t-70 29t-29 71q0 40 29 68q29 29 70 29z" />
    <glyph glyph-name="ntilde" unicode="&#xf1;" horiz-adv-x="938" vert-adv-y="2457" 
d="M128 851h146v-103q40 49 72 72q71 51 172 51q105 0 183 -56q77 -54 98 -159q10 -49 10 -128v-528h-146v503q0 119 -28 165q-43 71 -150 71q-128 0 -176 -101q-35 -72 -35 -213v-425h-146v851zM250 1037l-85 69q19 52 52 87q54 59 124 59q57 0 127 -44q66 -40 96 -40
q52 0 95 87l86 -66q-21 -52 -52 -85q-60 -63 -129 -63q-44 0 -117 42q-76 44 -110 44q-58 0 -87 -90z" />
    <glyph glyph-name="oacute" unicode="&#xf3;" horiz-adv-x="1043" vert-adv-y="2457" 
d="M521 870q201 0 334 -146q115 -126 115 -301q0 -204 -149 -336q-126 -112 -303 -112q-122 0 -228 62q-108 64 -166 175q-52 98 -52 218q0 186 140 319q128 121 309 121zM520 738q-146 0 -232 -110q-67 -86 -67 -201q0 -147 89 -236q84 -84 207 -84q150 0 238 109
q66 83 66 206q0 144 -90 232q-85 84 -211 84zM787 1275l-276 -279l-91 51l215 296z" />
    <glyph glyph-name="ograve" unicode="&#xf2;" horiz-adv-x="1043" vert-adv-y="2457" 
d="M521 870q201 0 334 -146q115 -126 115 -301q0 -204 -149 -336q-126 -112 -303 -112q-122 0 -228 62q-108 64 -166 175q-52 98 -52 218q0 186 140 319q128 121 309 121zM520 738q-146 0 -232 -110q-67 -86 -67 -201q0 -147 89 -236q84 -84 207 -84q150 0 238 109
q66 83 66 206q0 144 -90 232q-85 84 -211 84zM263 1275l151 68l216 -296l-91 -51z" />
    <glyph glyph-name="ocircumflex" unicode="&#xf4;" horiz-adv-x="1043" vert-adv-y="2457" 
d="M521 870q201 0 334 -146q115 -126 115 -301q0 -204 -149 -336q-126 -112 -303 -112q-122 0 -228 62q-108 64 -166 175q-52 98 -52 218q0 186 140 319q128 121 309 121zM520 738q-146 0 -232 -110q-67 -86 -67 -201q0 -147 89 -236q84 -84 207 -84q150 0 238 109
q66 83 66 206q0 144 -90 232q-85 84 -211 84zM245 1077l282 266l284 -266l-105 -80l-179 169l-180 -170z" />
    <glyph glyph-name="odieresis" unicode="&#xf6;" horiz-adv-x="1043" vert-adv-y="2457" 
d="M521 870q201 0 334 -146q115 -126 115 -301q0 -204 -149 -336q-126 -112 -303 -112q-122 0 -228 62q-108 64 -166 175q-52 98 -52 218q0 186 140 319q128 121 309 121zM520 738q-146 0 -232 -110q-67 -86 -67 -201q0 -147 89 -236q84 -84 207 -84q150 0 238 109
q66 83 66 206q0 144 -90 232q-85 84 -211 84zM343 1249q43 0 73 -30t30 -72q0 -43 -30 -73q-31 -30 -73 -30t-72 30t-30 74q0 41 30 71t72 30zM699 1249q42 0 72 -30t30 -72q0 -43 -30 -73t-72 -30q-43 0 -73 30q-30 31 -30 74q0 41 30 71q31 30 73 30z" />
    <glyph glyph-name="otilde" unicode="&#xf5;" horiz-adv-x="1043" vert-adv-y="2457" 
d="M521 870q201 0 334 -146q115 -126 115 -301q0 -204 -149 -336q-126 -112 -303 -112q-122 0 -228 62q-108 64 -166 175q-52 98 -52 218q0 186 140 319q128 121 309 121zM520 738q-146 0 -232 -110q-67 -86 -67 -201q0 -147 89 -236q84 -84 207 -84q150 0 238 109
q66 83 66 206q0 144 -90 232q-85 84 -211 84zM334 1037l-85 69q19 52 51 87q54 59 124 59q57 0 128 -44q65 -40 95 -40q52 0 96 87l85 -66q-20 -52 -52 -85q-59 -63 -129 -63q-43 0 -116 42q-76 44 -111 44q-58 0 -86 -90z" />
    <glyph glyph-name="uacute" unicode="&#xfa;" horiz-adv-x="931" vert-adv-y="2457" 
d="M274 851v-497q0 -110 26 -159q23 -43 70 -66q44 -22 95 -22q76 0 128 43q46 38 57 108q6 36 6 96v497h146v-513q0 -121 -30 -185q-42 -92 -137 -140q-76 -38 -170 -38q-164 0 -260 107q-51 57 -66 126q-11 54 -11 130v513h146zM724 1275l-276 -279l-91 51l216 296z" />
    <glyph glyph-name="ugrave" unicode="&#xf9;" horiz-adv-x="931" vert-adv-y="2457" 
d="M274 851v-497q0 -110 26 -159q23 -43 70 -66q44 -22 95 -22q76 0 128 43q46 38 57 108q6 36 6 96v497h146v-513q0 -121 -30 -185q-42 -92 -137 -140q-76 -38 -170 -38q-164 0 -260 107q-51 57 -66 126q-11 54 -11 130v513h146zM207 1275l151 68l216 -296l-91 -51z" />
    <glyph glyph-name="ucircumflex" unicode="&#xfb;" horiz-adv-x="931" vert-adv-y="2457" 
d="M274 851v-497q0 -110 26 -159q23 -43 70 -66q44 -22 95 -22q76 0 128 43q46 38 57 108q6 36 6 96v497h146v-513q0 -121 -30 -185q-42 -92 -137 -140q-76 -38 -170 -38q-164 0 -260 107q-51 57 -66 126q-11 54 -11 130v513h146zM182 1077l282 266l285 -266l-105 -80
l-180 169l-179 -170z" />
    <glyph glyph-name="udieresis" unicode="&#xfc;" horiz-adv-x="931" vert-adv-y="2457" 
d="M274 851v-497q0 -110 26 -159q23 -43 70 -66q44 -22 95 -22q76 0 128 43q46 38 57 108q6 36 6 96v497h146v-513q0 -121 -30 -185q-42 -92 -137 -140q-76 -38 -170 -38q-164 0 -260 107q-51 57 -66 126q-11 54 -11 130v513h146zM287 1249q43 0 73 -30t30 -72
q0 -43 -30 -73q-31 -30 -73 -30t-72 30q-30 31 -30 74q0 41 30 71t72 30zM643 1249q42 0 72 -30t30 -72q0 -43 -30 -73t-72 -30q-43 0 -73 30q-30 31 -30 74q0 41 30 71q31 30 73 30z" />
    <glyph glyph-name="dagger" unicode="&#x2020;" horiz-adv-x="1112" vert-adv-y="2457" 
d="M482 1494h147v-336h302v-142h-302v-1376h-147v1376h-302v142h302v336z" />
    <glyph glyph-name="degree" unicode="&#xb0;" horiz-adv-x="1112" vert-adv-y="2457" 
d="M560 1385q108 0 189 -80q80 -78 80 -192t-80 -193q-80 -80 -193 -80t-193 80q-80 79 -80 192q0 116 80 193q83 80 197 80zM558 1276q-69 0 -118 -48q-48 -47 -48 -115t48 -116t116 -48t116 48t48 116q0 69 -48 115q-50 48 -114 48z" />
    <glyph glyph-name="cent" unicode="&#xa2;" horiz-adv-x="1133" vert-adv-y="2457" 
d="M687 1141q114 -11 217 -79v-192q-57 65 -97 90q-57 37 -120 48v-623q41 7 74 23q75 35 148 122v-193q-119 -78 -222 -86v-202h-119v205q-89 12 -160 54q-115 69 -174 186q-47 93 -47 200q0 165 106 292q109 131 275 152v193h119v-190zM568 387v617q-43 -9 -75 -27
q-76 -45 -118 -123q-39 -72 -39 -159q0 -172 136 -268q41 -28 96 -40z" />
    <glyph glyph-name="sterling" unicode="&#xa3;" horiz-adv-x="1133" vert-adv-y="2457" 
d="M520 601h258v-116h-218q13 -46 13 -79q0 -91 -60 -198l120 -41q110 -40 153 -40q59 0 106 51q25 27 58 85l123 -74q-107 -211 -282 -211q-75 0 -225 54q-140 50 -190 50q-60 0 -107 -39q-23 -19 -57 -69l-118 79q61 91 125 131q63 40 139 44q59 90 59 172q0 35 -14 85
h-228v116h179l-59 116q-32 62 -51 105q-38 86 -38 181q0 139 91 244q119 137 312 137q140 0 242 -77q144 -110 154 -328l-150 -40q-7 96 -23 146q-19 59 -64 98q-65 54 -157 54q-105 0 -176 -66q-75 -70 -75 -178q0 -76 48 -175l62 -119q37 -68 50 -98z" />
    <glyph glyph-name="section" unicode="&#xa7;" horiz-adv-x="1112" vert-adv-y="2457" 
d="M186 5h148q6 -111 38 -158q54 -81 169 -81q101 0 153 57q52 56 52 148q0 113 -88 169q-42 27 -183 81q-134 52 -192 104q-101 91 -101 245q0 229 205 322q-63 36 -94 67q-79 82 -79 209q0 152 108 248q40 35 96 59q77 33 155 33q121 0 217 -69q121 -86 133 -317h-144
q-3 103 -35 157q-50 89 -170 89q-94 0 -153 -57q-59 -58 -59 -154q0 -92 71 -144q39 -29 87 -46l92 -33q144 -50 209 -105q108 -90 108 -257q0 -133 -82 -226q-41 -47 -123 -95q66 -39 96 -69q76 -78 76 -215q0 -151 -93 -244q-99 -99 -265 -99q-131 0 -223 68
q-90 65 -116 192q-10 48 -13 121zM555 796q-92 0 -156 -65q-65 -66 -65 -155q0 -94 65 -161q64 -65 156 -65t156 65q65 66 65 158q0 94 -65 158q-66 65 -156 65z" />
    <glyph glyph-name="bullet" unicode="&#x2022;" vert-adv-y="2457" 
d="M689 978q113 0 196 -83q84 -83 84 -201t-83 -201t-201 -83q-116 0 -199 82q-85 84 -85 202q0 120 84 202q86 82 204 82z" />
    <glyph glyph-name="paragraph" unicode="&#xb6;" horiz-adv-x="1112" vert-adv-y="2457" 
d="M409 -202v874q-18 -1 -30 -1q-100 0 -180 51q-66 43 -103 119q-38 77 -38 171q0 120 58 209q94 144 339 144h586l-68 -119h-90v-1448h-130v1448h-214v-1448h-130z" />
    <glyph glyph-name="germandbls" unicode="&#xdf;" horiz-adv-x="1064" vert-adv-y="2457" 
d="M142 0v716h-79v135h79v282q0 173 78 267q44 53 116 83q78 34 165 34q166 0 267 -112q85 -95 85 -229q0 -103 -59 -183q-35 -49 -94 -80q87 -33 146 -89q67 -63 106 -155q40 -94 40 -194q0 -158 -95 -285q-150 -199 -424 -214v143q135 10 223 74q147 107 147 287
q0 127 -78 222q-71 86 -203 116q-29 6 -89 14v132q98 5 148 42q41 30 64 85q19 44 19 91q0 97 -69 156q-54 47 -138 47t-142 -49q-51 -43 -62 -141q-5 -46 -5 -129v-1066h-146z" />
    <glyph glyph-name="registered" unicode="&#xae;" horiz-adv-x="1516" vert-adv-y="2457" 
d="M801 627l250 -361h-143l-211 309v-309h-118v819h141q116 0 179 -44q90 -63 90 -189q0 -106 -69 -171q-44 -42 -119 -54zM696 734h38q136 0 136 119q0 66 -41 96q-32 23 -105 23h-28v-238zM769 1388q181 0 342 -95q165 -97 258 -258q95 -163 95 -352q0 -190 -95 -353
q-94 -164 -258 -258q-164 -95 -353 -95t-353 95q-165 94 -258 258q-95 164 -95 358q0 305 234 518q199 182 483 182zM767 1273q-270 0 -448 -196q-152 -167 -152 -390q0 -267 196 -443q168 -152 395 -152q158 0 295 79q138 80 217 216q79 138 79 296q0 259 -196 438
q-91 83 -209 121q-94 31 -177 31z" />
    <glyph glyph-name="copyright" unicode="&#xa9;" horiz-adv-x="1516" vert-adv-y="2457" 
d="M1072 980v-175q-67 79 -87 98q-84 78 -200 78q-134 0 -228 -109q-76 -87 -76 -201q0 -124 88 -210q96 -94 217 -94q50 0 105 21t94 54q18 16 87 94v-171q-140 -111 -283 -111q-171 0 -298 122q-129 123 -129 299q0 184 139 310q123 111 284 111q136 0 240 -78
q11 -8 47 -38zM769 1388q181 0 342 -95q165 -97 258 -258q95 -163 95 -352q0 -190 -95 -353q-94 -164 -258 -258q-164 -95 -353 -95t-353 95q-165 94 -258 258q-95 164 -95 358q0 305 234 518q199 182 483 182zM767 1273q-270 0 -448 -196q-152 -167 -152 -390
q0 -267 196 -443q168 -152 395 -152q158 0 295 79q138 80 217 216q79 138 79 296q0 259 -196 438q-91 83 -209 121q-94 31 -177 31z" />
    <glyph glyph-name="trademark" unicode="&#x2122;" horiz-adv-x="1454" vert-adv-y="2457" 
d="M282 1272v-685h-99v685h-185v93h470v-93h-186zM542 587l134 828l293 -646l301 646l125 -828h-96l-70 528l-261 -567l-256 567l-74 -528h-96z" />
    <glyph glyph-name="acute" unicode="&#xb4;" horiz-adv-x="975" vert-adv-y="2457" 
d="M766 1275l-276 -279l-91 51l216 296z" />
    <glyph glyph-name="dieresis" unicode="&#xa8;" horiz-adv-x="975" vert-adv-y="2457" 
d="M310 1249q43 0 73 -30t30 -72q0 -43 -30 -73q-31 -30 -73 -30t-72 30t-30 74q0 41 30 71t72 30zM666 1249q42 0 72 -30t30 -72q0 -43 -30 -73t-72 -30q-43 0 -73 30t-30 74q0 41 30 71q31 30 73 30z" />
    <glyph glyph-name="notequal" unicode="&#x2260;" horiz-adv-x="1139" vert-adv-y="2457" 
d="M598 883l127 267l105 -43l-106 -224h327v-119h-383l-65 -136h448v-119h-505l-134 -283l-105 43l113 240h-333v119h390l65 136h-455v119h511z" />
    <glyph glyph-name="AE" unicode="&#xc6;" horiz-adv-x="1785" vert-adv-y="2457" 
d="M911 382h-582l-162 -382h-167l608 1365h600l60 -142h-552l171 -408h538l62 -142h-538l221 -531h555l60 -142h-713zM851 524l-226 537l-230 -537h456z" />
    <glyph glyph-name="Oslash" unicode="&#xd8;" horiz-adv-x="1599" vert-adv-y="2457" 
d="M246 233q-35 48 -53 78q-104 167 -104 368q0 182 87 340q91 164 256 264q172 105 370 105q207 0 386 -117l60 -41l158 157l87 -89l-154 -157q37 -49 57 -78q114 -174 114 -382q0 -189 -97 -354q-93 -158 -252 -252q-169 -100 -362 -100q-212 0 -397 122q-24 16 -65 46
l-159 -157l-92 89zM354 340l784 787q-149 118 -338 118q-159 0 -295 -85q-120 -76 -190 -201q-72 -129 -72 -280q0 -157 80 -292zM1232 1037l-788 -786q29 -27 54 -42q146 -91 306 -91q147 0 280 81q131 79 203 209q69 125 69 272q0 190 -124 357z" />
    <glyph glyph-name="infinity" unicode="&#x221e;" vert-adv-y="2457" 
d="M686 595q-151 -212 -337 -212q-157 0 -245 110q-67 84 -67 208q0 176 140 263q79 48 173 48q186 0 329 -211q145 211 338 211q161 0 248 -116q62 -83 62 -200q0 -149 -98 -237q-87 -77 -210 -77q-190 0 -333 213zM759 698q33 -52 61 -86q84 -99 181 -99q79 0 130 59
q44 50 44 125q0 94 -66 146q-49 38 -110 38q-100 0 -185 -106q-19 -24 -39 -53zM605 697q-32 51 -61 85q-84 99 -181 99q-80 0 -130 -58q-44 -51 -44 -126q0 -93 66 -145q49 -38 110 -38q101 0 186 105q18 24 38 54z" />
    <glyph glyph-name="plusminus" unicode="&#xb1;" horiz-adv-x="1139" vert-adv-y="2457" 
d="M88 633v126h419v412h126v-412h419v-126h-419v-398h-126v398h-419zM88 0v126h964v-126h-964z" />
    <glyph glyph-name="lessequal" unicode="&#x2264;" horiz-adv-x="1024" vert-adv-y="2457" 
d="M955 1253v-147l-723 -320l723 -321v-146l-887 398v133zM955 258v-143h-887v143h887z" />
    <glyph glyph-name="greaterequal" unicode="&#x2265;" horiz-adv-x="1024" vert-adv-y="2457" 
d="M68 319v146l723 321l-723 320v147l887 -403v-133zM68 115v143h887v-143h-887z" />
    <glyph glyph-name="yen" unicode="&#xa5;" horiz-adv-x="1133" vert-adv-y="2457" 
d="M755 784l-103 -177h393v-116h-405v-491h-153v491h-399v116h388l-102 177h-286v116h219l-267 465h176l348 -609l353 609h176l-271 -465h223v-116h-290z" />
    <glyph glyph-name="mu" unicode="&#xb5;" horiz-adv-x="953" vert-adv-y="2457" 
d="M286 -479h-146v1330h146v-519q0 -65 13 -106q17 -56 66 -88q48 -31 112 -31q76 0 128 43q46 38 57 108q6 36 6 96v497h146v-513q0 -121 -29 -185q-43 -91 -138 -139q-75 -39 -165 -39q-114 0 -203 64z" />
    <glyph glyph-name="partialdiff" unicode="&#x2202;" horiz-adv-x="1045" vert-adv-y="2457" 
d="M183 1236l20 136q175 -24 288 -72q255 -109 383 -363q99 -196 99 -433q0 -199 -84 -328q-65 -99 -168 -151q-92 -47 -197 -47q-151 0 -272 95q-68 52 -112 124q-68 112 -68 244q0 139 76 257q64 100 168 151q87 42 183 42q126 0 212 -61q34 -25 87 -88q-10 23 -14 34
q-48 116 -80 162q-93 132 -260 218q-114 59 -261 80zM533 775q-117 0 -203 -83q-43 -43 -71 -107q-31 -73 -31 -152q0 -151 100 -253q83 -84 195 -84q113 0 195 86q98 102 98 264q0 168 -103 259q-79 70 -180 70z" />
    <glyph glyph-name="summation" unicode="&#x2211;" vert-adv-y="2457" 
d="M1227 1536v-470h-140l-14 326h-844l517 -840l-517 -921h864l8 323h145v-466h-1189v161l509 903l-509 826v158h1170z" />
    <glyph glyph-name="product" unicode="&#x220f;" horiz-adv-x="1434" vert-adv-y="2457" 
d="M75 1536h1283v-143h-163v-1762h163v-143h-485v143h168v1762h-649v-1762h166v-143h-483v143h163v1762h-163v143z" />
    <glyph glyph-name="pi" unicode="&#x3c0;" horiz-adv-x="1106" vert-adv-y="2457" 
d="M895 716v-716h-146v716h-393v-716h-146v716h-149v135h983v-135h-149z" />
    <glyph glyph-name="integral" unicode="&#x222b;" horiz-adv-x="1024" vert-adv-y="2457" 
d="M192 -490l33 137q53 -20 93 -20q96 0 111 93q6 35 6 154v1248q0 200 18 260q21 71 85 114q61 40 155 40q57 0 139 -22l-33 -137q-54 20 -92 20q-97 0 -113 -93q-4 -26 -5 -223v-1179q0 -174 -12 -235q-20 -99 -109 -144q-65 -32 -155 -32q-68 0 -121 19z" />
    <glyph glyph-name="ordfeminine" unicode="&#xaa;" horiz-adv-x="711" vert-adv-y="2457" 
d="M507 1360h97v-512h-97v65q-72 -80 -177 -80q-119 0 -194 88q-64 73 -64 184q0 129 85 204q71 63 170 63q108 0 180 -78v66zM340 1288q-75 0 -125 -55q-45 -50 -45 -125q0 -90 55 -143q47 -46 115 -46q83 0 133 61q40 49 40 125q0 89 -54 138q-51 45 -119 45z" />
    <glyph glyph-name="ordmasculine" unicode="&#xba;" horiz-adv-x="712" vert-adv-y="2457" 
d="M356 1372q126 0 210 -88q72 -75 72 -181q0 -123 -94 -203q-79 -67 -190 -67q-129 0 -213 94q-67 75 -67 180q0 112 88 193q80 72 194 72zM355 1287q-89 0 -141 -64q-42 -50 -42 -117q0 -86 55 -138q51 -49 126 -49q92 0 146 63q41 49 41 121q0 84 -55 136q-53 48 -130 48
z" />
    <glyph glyph-name="uni2126" unicode="&#x2126;" vert-adv-y="2457" 
d="M58 0v135h365q-365 216 -365 609q0 305 218 500q173 155 406 155q234 0 407 -155q218 -195 218 -500q0 -394 -365 -609h365v-135h-535v122q143 82 219 169q159 183 159 435q0 241 -160 402q-133 134 -305 134q-167 0 -297 -116q-173 -156 -173 -420q0 -391 378 -604v-122
h-535z" />
    <glyph glyph-name="ae" unicode="&#xe6;" horiz-adv-x="1553" vert-adv-y="2457" 
d="M1482 395h-666q6 -87 37 -146q35 -64 96 -102q64 -39 137 -39q106 0 185 75q35 33 76 104l125 -73q-53 -87 -108 -136q-116 -103 -278 -103q-136 0 -240 75q-54 39 -92 96q-38 -64 -82 -99q-91 -72 -238 -72q-188 0 -283 92q-80 78 -80 183q0 129 109 214q87 69 241 69
q106 0 184 -38q25 -12 61 -35q-2 109 -33 171q-55 108 -208 108q-108 0 -263 -52v138q166 46 271 46q138 0 232 -72q56 -42 82 -100q32 54 82 91q108 81 247 81q153 0 263 -94q144 -122 143 -382zM1326 519q-13 67 -42 111q-72 108 -207 108q-140 0 -210 -112
q-25 -39 -40 -107h499zM436 401q-113 0 -175 -52q-47 -41 -47 -94q0 -69 63 -110q59 -38 153 -38q117 0 177 53q51 44 51 100q0 60 -61 101q-60 40 -161 40z" />
    <glyph glyph-name="oslash" unicode="&#xf8;" horiz-adv-x="1043" vert-adv-y="2457" 
d="M162 153q-89 118 -89 273q0 192 140 324q129 120 309 120q151 0 270 -90l121 121l82 -81l-121 -121q18 -18 30 -37q67 -108 67 -241q0 -201 -149 -334q-126 -112 -298 -112q-148 0 -278 93l-123 -121l-82 84zM266 251l425 433q-69 54 -170 54q-146 0 -232 -109
q-67 -86 -67 -209q0 -95 44 -169zM772 602l-427 -437q65 -58 176 -58q146 0 234 110q67 83 67 205q0 107 -50 180z" />
    <glyph glyph-name="questiondown" unicode="&#xbf;" horiz-adv-x="893" vert-adv-y="2457" 
d="M300 456h-146q2 105 39 169q41 72 116 111q65 33 141 33q132 0 217 -93q76 -85 76 -201q0 -123 -86 -197q-52 -45 -162 -80q-95 -30 -119.5 -40.5t-50.5 -30.5q-60 -46 -60 -138q0 -86 54 -137q55 -52 132 -52q84 0 137 62q42 48 42 117q0 32 -11 88h149q9 -58 9 -96
q0 -144 -110 -235q-91 -76 -219 -76q-157 0 -253 110q-79 90 -79 219q0 112 62 199q51 71 158 110q27 9 120 36q76 22 105 58q33 41 33 93q0 64 -47 108q-41 38 -99 38q-90 0 -127 -76q-16 -33 -21 -99zM446 1063q42 0 71 -30q30 -30 30 -72q0 -40 -30 -71q-29 -29 -71 -29
t-72 29q-29 30 -29 71q0 44 29 72q31 30 72 30z" />
    <glyph glyph-name="exclamdown" unicode="&#xa1;" horiz-adv-x="568" vert-adv-y="2457" 
d="M284 1066q42 0 71 -29q30 -30 30 -73q0 -40 -30 -70q-29 -29 -70 -29q-42 0 -71 29q-30 30 -30 72t30 71t70 29zM357 769v-1088h-147v1088h147z" />
    <glyph glyph-name="logicalnot" unicode="&#xac;" horiz-adv-x="1024" vert-adv-y="2457" 
d="M801 0v403h-733v143h887v-546h-154z" />
    <glyph glyph-name="radical" unicode="&#x221a;" vert-adv-y="2457" 
d="M1365 1698v-143h-400l-438 -1555h-190l-166 610h-171v143h297l74 -260q8 -30 51 -253l6 -32h11q7 37 39 175l49 218l86 305l220 792h532z" />
    <glyph glyph-name="florin" unicode="&#x192;" horiz-adv-x="1133" vert-adv-y="2457" 
d="M665 825h217l-20 -123h-220l-108 -590q-29 -158 -56 -228q-55 -140 -192 -192q-75 -29 -166 -29q-37 0 -95 7l29 136q42 -2 60 -2q131 0 195 81q45 57 77 234l106 583h-148l20 123h151l55 308q23 127 75 199q74 101 223 101q54 0 123 -22l-27 -137q-51 21 -95 21
q-82 0 -112 -60q-25 -47 -43 -143z" />
    <glyph glyph-name="approxequal" unicode="&#x2248;" horiz-adv-x="1160" vert-adv-y="2457" 
d="M177 713l-90 58q34 73 75 129q81 108 207 108q76 0 228 -70q103 -48 135 -56q33 -9 63 -9q71 0 119 49q30 31 65 91l93 -55q-55 -112 -114 -162q-81 -70 -182 -70q-36 0 -91 17q-55 18 -196 81q-81 37 -132 37q-66 0 -117 -55q-30 -32 -63 -93zM177 367l-90 59
q34 73 75 129q81 109 207 109q76 0 228 -71q104 -48 135 -56q34 -9 63 -9q71 0 119 49q30 31 65 90l93 -54q-56 -113 -114 -163q-81 -69 -182 -69q-36 0 -91 18q-56 17 -196 81q-81 37 -132 37q-100 0 -180 -150z" />
    <glyph glyph-name="Delta" unicode="&#x2206;" vert-adv-y="2457" 
d="M55 0l543 1365h165l547 -1365h-1255zM275 143h812l-406 1035z" />
    <glyph glyph-name="guillemotleft" unicode="&#xab;" horiz-adv-x="883" vert-adv-y="2457" 
d="M537 437l243 -300l-95 -76l-305 376l305 384l95 -75zM232 437l244 -300l-95 -76l-306 376l305 384l96 -75z" />
    <glyph glyph-name="guillemotright" unicode="&#xbb;" horiz-adv-x="883" vert-adv-y="2457" 
d="M346 437l-244 309l95 75l306 -384l-306 -376l-95 76zM650 437l-243 309l95 75l305 -384l-305 -376l-95 76z" />
    <glyph glyph-name="ellipsis" unicode="&#x2026;" horiz-adv-x="1527" vert-adv-y="2457" 
d="M254 181q42 0 72 -29q29 -30 29 -71q0 -42 -29 -72q-29 -29 -71 -29q-43 0 -72 29q-29 30 -29 73q0 41 29 70q30 29 71 29zM763 181q42 0 72 -29q29 -30 29 -71q0 -42 -29 -72q-29 -29 -71 -29q-43 0 -72 29q-29 30 -29 73q0 41 29 70q30 29 71 29zM1273 181q42 0 72 -29
q29 -30 29 -71q0 -42 -29 -72q-29 -29 -71 -29t-71 29q-30 30 -30 73q0 40 30 70q29 29 70 29z" />
    <glyph glyph-name="glyph172" horiz-adv-x="1133" vert-adv-y="1133" 
 />
    <glyph glyph-name="Agrave" unicode="&#xc0;" horiz-adv-x="1242" vert-adv-y="2457" 
d="M914 386h-583l-165 -386h-166l629 1430l613 -1430h-167zM854 528l-228 547l-233 -547h461zM358 1715l138 91l244 -265l-88 -65z" />
    <glyph glyph-name="Atilde" unicode="&#xc3;" horiz-adv-x="1242" vert-adv-y="2457" 
d="M914 386h-583l-165 -386h-166l629 1430l613 -1430h-167zM854 528l-228 547l-233 -547h461zM419 1528l-87 69q72 146 181 146q47 0 131 -43q80 -41 112 -41q50 0 94 87l88 -66q-71 -148 -187 -148q-49 0 -133 43q-83 41 -115 41q-31 0 -54 -32q-9 -14 -30 -56z" />
    <glyph glyph-name="Otilde" unicode="&#xd5;" horiz-adv-x="1593" vert-adv-y="2457" 
d="M798 1388q189 0 349 -94q168 -97 264 -260q96 -164 96 -353t-97 -354q-93 -158 -252 -252q-169 -100 -368 -100q-180 0 -347 94q-176 101 -270 271q-87 157 -87 350q0 291 225 503q112 106 258 156q116 39 229 39zM797 1245q-254 0 -421 -195q-136 -158 -136 -361
q0 -252 174 -416q90 -84 205 -125q87 -30 173 -30q155 0 289 81q132 78 203 209q69 126 69 273q0 239 -170 407q-89 87 -205 126q-91 31 -181 31zM602 1528l-88 69q73 146 182 146q46 0 131 -43q79 -41 112 -41q50 0 93 87l88 -66q-71 -148 -187 -148q-49 0 -133 43
q-82 41 -115 41q-31 0 -53 -32q-10 -14 -30 -56z" />
    <glyph glyph-name="OE" unicode="&#x152;" horiz-adv-x="2133" vert-adv-y="2457" 
d="M2044 1223h-545v-407h530v-142h-530v-532h545v-142h-698v262q-207 -287 -545 -287q-188 0 -354 95q-191 108 -288 300q-73 146 -73 308q0 175 86 337q90 166 242 263q172 110 381 110q241 0 418 -146q64 -53 133 -145v268h698v-142zM794 1245q-153 0 -283 -82
q-127 -79 -199 -206q-72 -128 -72 -268q0 -254 179 -421q161 -150 368 -150q153 0 288 81q131 79 201 207q70 125 70 272q0 250 -184 421q-158 146 -368 146z" />
    <glyph glyph-name="oe" unicode="&#x153;" horiz-adv-x="1715" vert-adv-y="2457" 
d="M1644 397h-670q4 -84 39 -147q36 -66 96 -103q64 -40 143 -40q162 0 257 182l123 -72q-140 -242 -390 -242q-147 0 -260 91q-60 48 -92 113q-38 -62 -86 -101q-123 -103 -288 -103q-195 0 -327 143q-118 127 -118 302q0 127 68 238q61 100 161 156q101 56 223 56
q160 0 281 -99q51 -42 86 -103q31 62 83 107q109 95 260 95q159 0 269 -91q100 -82 132 -243q10 -53 10 -110v-29zM1489 520q-13 68 -42 111q-71 106 -209 106q-199 0 -252 -217h503zM517 737q-143 0 -226 -105q-71 -89 -71 -207q0 -150 94 -240q82 -78 200 -78
q158 0 245 118q59 79 59 193q0 148 -93 239q-81 80 -208 80z" />
    <glyph glyph-name="endash" unicode="&#x2013;" horiz-adv-x="1161" vert-adv-y="2457" 
d="M240 502h681v-131h-681v131z" />
    <glyph glyph-name="emdash" unicode="&#x2014;" horiz-adv-x="1114" vert-adv-y="2457" 
d="M0 502h1114v-131h-1114v131z" />
    <glyph glyph-name="quotedblleft" unicode="&#x201c;" horiz-adv-x="836" vert-adv-y="2457" 
d="M550 923l-134 49l206 462l97 -39zM250 923l-134 49l206 462l97 -39z" />
    <glyph glyph-name="quotedblright" unicode="&#x201d;" horiz-adv-x="835" vert-adv-y="2457" 
d="M286 1434l133 -49l-205 -462l-98 39zM586 1434l133 -49l-205 -462l-98 39z" />
    <glyph glyph-name="quoteleft" unicode="&#x2018;" horiz-adv-x="535" vert-adv-y="2457" 
d="M250 923l-134 49l206 462l97 -39z" />
    <glyph glyph-name="quoteright" unicode="&#x2019;" horiz-adv-x="467" vert-adv-y="2457" 
d="M239 1434l134 -49l-206 -462l-98 39z" />
    <glyph glyph-name="divide" unicode="&#xf7;" horiz-adv-x="1139" vert-adv-y="2457" 
d="M88 633v126h964v-126h-964zM570 524q40 0 68 -28t28 -68t-28 -68t-68 -28t-68 28q-28 29 -28 69q0 39 28 67q29 28 68 28zM570 1061q40 0 68 -28t28 -68t-28 -68t-68 -28t-68 28q-28 29 -28 69q0 39 28 67q29 28 68 28z" />
    <glyph glyph-name="lozenge" unicode="&#x25ca;" vert-adv-y="2457" 
d="M683 1419l531 -736l-531 -736l-532 736zM683 1134l-328 -451l328 -450l328 450z" />
    <glyph glyph-name="ydieresis" unicode="&#xff;" horiz-adv-x="920" vert-adv-y="2457" 
d="M396 81l-391 770h169l300 -609l275 609h165l-628 -1330h-165zM282 1249q43 0 73 -30t30 -72q0 -43 -30 -73q-31 -30 -73 -30t-72 30t-30 74q0 41 30 71t72 30zM638 1249q42 0 72 -30t30 -72q0 -43 -30 -73t-72 -30q-43 0 -73 30q-30 31 -30 74q0 41 30 71q31 30 73 30z
" />
    <glyph glyph-name="Ydieresis" unicode="&#x178;" horiz-adv-x="1054" vert-adv-y="2457" 
d="M447 587l-447 778h176l348 -609l353 609h177l-454 -778v-587h-153v587zM332 1738q43 0 74 -31q31 -30 31 -73q0 -44 -31 -74q-30 -31 -74 -31q-43 0 -73 31q-31 31 -31 75q0 42 31 72q31 31 73 31zM721 1738q44 0 74 -31q31 -30 31 -73q0 -44 -31 -74q-30 -31 -74 -31
q-43 0 -73 31q-31 31 -31 75q0 42 31 72q31 31 73 31z" />
    <glyph glyph-name="fraction" unicode="&#x2044;" horiz-adv-x="265" vert-adv-y="2457" 
d="M491 1392l79 -44l-795 -1375l-79 48z" />
    <glyph glyph-name="Euro" unicode="&#x20ac;" horiz-adv-x="1133" vert-adv-y="2457" 
d="M142 860q21 77 60 148q99 182 273 282q164 95 360 95q120 0 263 -55v-162q-55 27 -93 42q-83 32 -181 32q-217 0 -378 -155q-96 -92 -144 -227h682l-74 -116h-635q-4 -42 -4 -71q0 -36 6 -82h534l-74 -116h-430q16 -41 32 -69q76 -138 224 -219q127 -69 262 -69
q104 0 197 39q32 14 76 35v-161q-145 -56 -271 -56q-268 0 -471 179q-150 131 -209 321h-194l74 116h95q-5 46 -5 82q0 24 3 71h-167l74 116h115z" />
    <glyph glyph-name="guilsinglleft" unicode="&#x2039;" horiz-adv-x="578" vert-adv-y="2457" 
d="M232 437l244 -300l-95 -76l-306 376l305 384l96 -75z" />
    <glyph glyph-name="guilsinglright" unicode="&#x203a;" horiz-adv-x="578" vert-adv-y="2457" 
d="M346 437l-244 309l95 75l306 -384l-306 -376l-95 76z" />
    <glyph glyph-name="fi" unicode="&#xfb01;" horiz-adv-x="911" vert-adv-y="2457" 
d="M290 716v-716h-146v716h-81v135h81v360q0 150 50 215q69 91 203 91q47 0 106 -18v-148q-56 21 -97 21q-67 0 -93 -41q-23 -36 -23 -153v-327h213v-135h-213zM780 851v-851h-146v851h146zM707 1275q43 0 73 -30q31 -31 31 -74q0 -44 -31 -74q-30 -31 -74 -31q-43 0 -73 31
q-31 31 -31 75q0 42 31 73q31 30 74 30z" />
    <glyph glyph-name="fl" unicode="&#xfb02;" horiz-adv-x="908" vert-adv-y="2457" 
d="M290 716v-716h-146v716h-81v135h81v360q0 150 50 215q69 91 203 91q47 0 106 -18v-148q-57 21 -97 21q-67 0 -93 -41q-23 -36 -23 -154v-326h213v-135h-213zM780 1494v-1494h-146v1494h146z" />
    <glyph glyph-name="daggerdbl" unicode="&#x2021;" horiz-adv-x="1112" vert-adv-y="2457" 
d="M482 1494h149v-336h301v-142h-301v-617h301v-142h-301v-617h-149v617h-302v142h302v617h-302v142h302v336z" />
    <glyph glyph-name="periodcentered" unicode="&#xb7;" horiz-adv-x="461" vert-adv-y="2457" 
d="M231 538q42 0 72 -29q29 -29 29 -72q0 -42 -29 -72q-30 -29 -72 -29t-71 30q-30 30 -30 73q0 40 30 70q29 29 71 29z" />
    <glyph glyph-name="quotesinglbase" unicode="&#x201a;" horiz-adv-x="467" vert-adv-y="2457" 
d="M239 205l134 -49l-206 -462l-98 39z" />
    <glyph glyph-name="quotedblbase" unicode="&#x201e;" horiz-adv-x="835" vert-adv-y="2457" 
d="M286 200l133 -49l-205 -462l-98 39zM586 200l133 -49l-205 -462l-98 39z" />
    <glyph glyph-name="perthousand" unicode="&#x2030;" horiz-adv-x="2186" vert-adv-y="2457" 
d="M361 1379q143 0 234 -106q71 -84 71 -192q0 -126 -94 -216q-86 -82 -213 -82q-141 0 -231 106q-71 85 -71 197q0 119 94 210q85 83 210 83zM361 1266q-77 0 -130 -54q-54 -54 -54 -128q0 -77 54 -132q53 -54 130 -54q76 0 129 54q54 54 54 130q0 78 -54 130
q-55 54 -129 54zM1078 1392l80 -44l-795 -1374l-79 46zM1081 582q143 0 233 -107q71 -84 71 -191q0 -126 -93 -215q-86 -83 -213 -83q-141 0 -230 106q-71 85 -71 196q0 120 93 211q85 83 210 83zM1081 469q-76 0 -129 -54q-54 -54 -54 -128q0 -77 54 -132q53 -54 130 -54
q76 0 129 54q54 54 54 130q0 78 -54 130q-55 54 -130 54zM1823 582q143 0 233 -107q72 -84 72 -191q0 -126 -94 -215q-86 -83 -213 -83q-141 0 -231 106q-71 85 -71 196q0 120 94 211q85 83 210 83zM1822 469q-76 0 -129 -54q-54 -54 -54 -128q0 -77 54 -132q53 -54 130 -54
q76 0 129 54q54 54 54 130q0 78 -54 130q-55 54 -130 54z" />
    <glyph glyph-name="Acircumflex" unicode="&#xc2;" horiz-adv-x="1242" vert-adv-y="2457" 
d="M914 386h-583l-165 -386h-166l629 1430l613 -1430h-167zM854 528l-228 547l-233 -547h461zM348 1561l285 243l288 -244l-108 -83l-179 155l-180 -155z" />
    <glyph glyph-name="Ecircumflex" unicode="&#xca;" horiz-adv-x="960" vert-adv-y="2457" 
d="M871 1223h-554v-405h539v-142h-539v-534h554v-142h-707v1365h707v-142zM231 1561l285 243l288 -244l-108 -83l-180 155l-179 -155z" />
    <glyph glyph-name="Aacute" unicode="&#xc1;" horiz-adv-x="1242" vert-adv-y="2457" 
d="M914 386h-583l-165 -386h-166l629 1430l613 -1430h-167zM854 528l-228 547l-233 -547h461zM897 1715l-293 -239l-88 65l244 265z" />
    <glyph glyph-name="Edieresis" unicode="&#xcb;" horiz-adv-x="960" vert-adv-y="2457" 
d="M871 1223h-554v-405h539v-142h-539v-534h554v-142h-707v1365h707v-142zM323 1738q43 0 74 -31q31 -30 31 -73q0 -44 -31 -74q-30 -31 -73 -31q-44 0 -74 31q-31 31 -31 75q0 42 31 72q31 31 73 31zM712 1738q44 0 74 -31q31 -30 31 -73q0 -44 -31 -74q-30 -31 -73 -31
q-44 0 -74 31q-31 31 -31 75q0 42 31 72q31 31 73 31z" />
    <glyph glyph-name="Egrave" unicode="&#xc8;" horiz-adv-x="960" vert-adv-y="2457" 
d="M871 1223h-554v-405h539v-142h-539v-534h554v-142h-707v1365h707v-142zM252 1715l137 91l245 -265l-89 -65z" />
    <glyph glyph-name="Iacute" unicode="&#xcd;" horiz-adv-x="481" vert-adv-y="2457" 
d="M317 1365v-1365h-153v1365h153zM476 1715l-246 -239l-88 58l197 272z" />
    <glyph glyph-name="Icircumflex" unicode="&#xce;" horiz-adv-x="481" vert-adv-y="2457" 
d="M317 1365v-1365h-153v1365h153zM-12 1561l251 243l254 -244l-102 -83l-152 155l-152 -155z" />
    <glyph glyph-name="Idieresis" unicode="&#xcf;" horiz-adv-x="481" vert-adv-y="2457" 
d="M317 1365v-1365h-153v1365h153zM101 1738q44 0 74 -31q31 -30 31 -73q0 -44 -31 -74q-30 -31 -73 -31q-44 0 -74 31q-31 31 -31 75q0 42 31 72q31 31 73 31zM378 1738q43 0 74 -31q31 -30 31 -73q0 -44 -31 -74q-30 -31 -73 -31q-44 0 -74 31q-31 31 -31 75q0 42 31 72
q31 31 73 31z" />
    <glyph glyph-name="Igrave" unicode="&#xcc;" horiz-adv-x="481" vert-adv-y="2457" 
d="M317 1365v-1365h-153v1365h153zM5 1715l137 91l197 -272l-88 -58z" />
    <glyph glyph-name="Oacute" unicode="&#xd3;" horiz-adv-x="1593" vert-adv-y="2457" 
d="M798 1388q189 0 349 -94q168 -97 264 -260q96 -164 96 -353t-97 -354q-93 -158 -252 -252q-169 -100 -368 -100q-180 0 -347 94q-176 101 -270 271q-87 157 -87 350q0 291 225 503q112 106 258 156q116 39 229 39zM797 1245q-254 0 -421 -195q-136 -158 -136 -361
q0 -252 174 -416q90 -84 205 -125q87 -30 173 -30q155 0 289 81q132 78 203 209q69 126 69 273q0 239 -170 407q-89 87 -205 126q-91 31 -181 31zM1073 1715l-294 -239l-88 65l245 265z" />
    <glyph glyph-name="Ocircumflex" unicode="&#xd4;" horiz-adv-x="1593" vert-adv-y="2457" 
d="M798 1388q189 0 349 -94q168 -97 264 -260q96 -164 96 -353t-97 -354q-93 -158 -252 -252q-169 -100 -368 -100q-180 0 -347 94q-176 101 -270 271q-87 157 -87 350q0 291 225 503q112 106 258 156q116 39 229 39zM797 1245q-254 0 -421 -195q-136 -158 -136 -361
q0 -252 174 -416q90 -84 205 -125q87 -30 173 -30q155 0 289 81q132 78 203 209q69 126 69 273q0 239 -170 407q-89 87 -205 126q-91 31 -181 31zM510 1561l285 243l288 -244l-108 -83l-180 155l-179 -155z" />
    <glyph glyph-name="glyph210" horiz-adv-x="512" vert-adv-y="2457" 
 />
    <glyph glyph-name="Ograve" unicode="&#xd2;" horiz-adv-x="1593" vert-adv-y="2457" 
d="M798 1388q189 0 349 -94q168 -97 264 -260q96 -164 96 -353t-97 -354q-93 -158 -252 -252q-169 -100 -368 -100q-180 0 -347 94q-176 101 -270 271q-87 157 -87 350q0 291 225 503q112 106 258 156q116 39 229 39zM797 1245q-254 0 -421 -195q-136 -158 -136 -361
q0 -252 174 -416q90 -84 205 -125q87 -30 173 -30q155 0 289 81q132 78 203 209q69 126 69 273q0 239 -170 407q-89 87 -205 126q-91 31 -181 31zM527 1715l137 91l245 -265l-88 -65z" />
    <glyph glyph-name="Uacute" unicode="&#xda;" horiz-adv-x="1301" vert-adv-y="2457" 
d="M317 1365v-836q0 -129 15 -187q26 -102 119 -164q91 -60 199 -60q126 0 225 78q81 65 100 173q9 52 9 160v836h153v-878q0 -142 -34 -227q-56 -137 -195 -217q-119 -68 -258 -68q-163 0 -297 93q-127 89 -167 227q-22 74 -22 192v878h153zM920 1715l-294 -239l-88 65
l245 265z" />
    <glyph glyph-name="Ucircumflex" unicode="&#xdb;" horiz-adv-x="1301" vert-adv-y="2457" 
d="M317 1365v-836q0 -129 15 -187q26 -102 119 -164q91 -60 199 -60q126 0 225 78q81 65 100 173q9 52 9 160v836h153v-878q0 -142 -34 -227q-56 -137 -195 -217q-119 -68 -258 -68q-163 0 -297 93q-127 89 -167 227q-22 74 -22 192v878h153zM364 1561l285 243l288 -244
l-108 -83l-179 155l-180 -155z" />
    <glyph glyph-name="Ugrave" unicode="&#xd9;" horiz-adv-x="1301" vert-adv-y="2457" 
d="M317 1365v-836q0 -129 15 -187q26 -102 119 -164q91 -60 199 -60q126 0 225 78q81 65 100 173q9 52 9 160v836h153v-878q0 -142 -34 -227q-56 -137 -195 -217q-119 -68 -258 -68q-163 0 -297 93q-127 89 -167 227q-22 74 -22 192v878h153zM388 1715l137 91l245 -265
l-88 -65z" />
    <glyph glyph-name="dotlessi" unicode="&#x131;" horiz-adv-x="409" vert-adv-y="2457" 
d="M277 851v-851h-146v851h146z" />
    <glyph glyph-name="circumflex" unicode="&#x2c6;" horiz-adv-x="975" vert-adv-y="2457" 
d="M204 1077l282 266l285 -266l-105 -80l-180 169l-179 -170z" />
    <glyph glyph-name="tilde" unicode="&#x2dc;" horiz-adv-x="975" vert-adv-y="2457" 
d="M283 1037l-85 69q19 52 51 87q54 59 124 59q57 0 128 -44q66 -40 95 -40q53 0 96 87l85 -66q-20 -52 -51 -85q-60 -63 -130 -63q-43 0 -116 42q-76 44 -110 44q-59 0 -87 -90z" />
    <glyph glyph-name="macron" unicode="&#xaf;" horiz-adv-x="975" vert-adv-y="2457" 
d="M212 1201h550v-123h-550v123z" />
    <glyph glyph-name="breve" unicode="&#x2d8;" horiz-adv-x="975" vert-adv-y="2457" 
d="M219 1297h127q5 -61 37 -97q40 -46 102 -46q59 0 99 41q35 36 46 102h126q-11 -100 -63 -165q-80 -101 -207 -101q-132 0 -212 101q-52 66 -55 165z" />
    <glyph glyph-name="dotaccent" unicode="&#x2d9;" horiz-adv-x="975" vert-adv-y="2457" 
d="M487 1250q44 0 74 -31q31 -30 31 -73q0 -44 -31 -74q-30 -31 -73 -31q-44 0 -74 31q-31 31 -31 75q0 42 31 72q31 31 73 31z" />
    <glyph glyph-name="ring" unicode="&#x2da;" horiz-adv-x="975" vert-adv-y="2457" 
d="M487 1361q77 0 132 -54q54 -54 54 -131t-54 -132q-55 -54 -131 -54q-78 0 -132 54q-54 56 -54 134q0 75 54 129q55 54 131 54zM488 1261q-36 0 -61 -25t-25 -59q0 -37 25 -62t61 -25q35 0 60 25t25 61t-25 60q-26 25 -60 25z" />
    <glyph glyph-name="cedilla" unicode="&#xb8;" horiz-adv-x="975" vert-adv-y="2457" 
d="M654 -151l-206 -263l-101 51l172 267z" />
    <glyph glyph-name="hungarumlaut" unicode="&#x2dd;" horiz-adv-x="975" vert-adv-y="2457" 
d="M620 1280l-272 -284l-75 48l216 299zM893 1280l-272 -284l-75 48l216 299z" />
    <glyph glyph-name="ogonek" unicode="&#x2db;" horiz-adv-x="975" vert-adv-y="2457" 
d="M759 0h116q-147 -99 -147 -178q0 -34 26 -58q21 -19 53 -19q47 0 104 27l-18 -112q-52 -28 -108 -28q-55 0 -96 23q-39 23 -63 64q-20 37 -20 74q0 108 153 207z" />
    <glyph glyph-name="caron" unicode="&#x2c7;" horiz-adv-x="975" vert-adv-y="2457" 
d="M771 1263l-282 -267l-285 267l105 80l180 -169l179 169z" />
    <glyph glyph-name="uni00A0" unicode="&#xa0;" horiz-adv-x="512" vert-adv-y="2457" 
 />
    <glyph glyph-name="currency" unicode="&#xa4;" horiz-adv-x="1316" vert-adv-y="2457" 
d="M88 252l193 193q-32 46 -53 84q-52 96 -52 209q0 119 61 225q15 26 41 63l-195 195l85 85l195 -194q52 35 89 55q91 51 207 51q122 0 229 -64q25 -14 63 -41l194 193l85 -85l-193 -193q32 -48 53 -85q50 -93 50 -207q0 -117 -62 -224q-15 -25 -41 -64l196 -196l-84 -84
l-195 195q-42 -29 -76 -48q-98 -57 -217 -57q-113 0 -221 58q-30 16 -75 44l-193 -192zM663 1083q-147 0 -248 -102q-100 -101 -100 -244q0 -142 101 -243t242 -101q142 0 244 102q100 100 100 242q0 146 -100 244q-103 102 -239 102z" />
    <glyph glyph-name="brokenbar" unicode="&#xa6;" horiz-adv-x="1024" vert-adv-y="2457" 
d="M435 1365h154v-682h-154v682zM435 314h154v-655h-154v655z" />
    <glyph glyph-name="uni00AD" unicode="&#xad;" horiz-adv-x="371" vert-adv-y="2457" 
d="M0 502h371v-131h-371v131z" />
    <glyph glyph-name="twosuperior" unicode="&#xb2;" horiz-adv-x="792" vert-adv-y="2457" 
d="M308 643h346v-97h-569l318 350q59 65 98 118q48 65 48 120q0 69 -55 112q-47 36 -108 36q-92 0 -136 -67q-22 -32 -28 -98h-108q10 99 45 149q77 111 226 111q116 0 195 -74q75 -70 75 -171q0 -86 -69 -177q-36 -48 -116 -135z" />
    <glyph glyph-name="threesuperior" unicode="&#xb3;" horiz-adv-x="792" vert-adv-y="2457" 
d="M353 930v91q68 1 104 19q64 34 64 111q0 61 -45 98q-37 31 -94 31q-76 0 -110 -48q-17 -23 -27 -80h-107q13 84 42 129q61 96 202 96q113 0 180 -67q65 -66 65 -156q0 -57 -28 -107q-17 -31 -71 -70q112 -72 112 -195q0 -119 -89 -189q-77 -59 -180 -59q-98 0 -170 53
q-80 59 -89 182h105q8 -56 29 -82q46 -57 129 -57q70 0 118 50q41 42 41 105q0 95 -80 128q-35 15 -101 17z" />
    <glyph glyph-name="onesuperior" unicode="&#xb9;" horiz-adv-x="792" vert-adv-y="2457" 
d="M366 1268h-145l57 97h196v-819h-108v722z" />
    <glyph glyph-name="onequarter" unicode="&#xbc;" horiz-adv-x="1712" vert-adv-y="2457" 
d="M312 1268h-145l57 97h196v-819h-108v722zM1192 1392l78 -44l-794 -1375l-79 48zM1445 228h102v-96h-102v-132h-109v132h-440l549 747v-651zM1336 228v336l-248 -336h248z" />
    <glyph glyph-name="onehalf" unicode="&#xbd;" horiz-adv-x="1712" vert-adv-y="2457" 
d="M277 1268h-145l57 97h196v-819h-108v722zM1111 1392l79 -44l-795 -1375l-79 48zM1184 97h346v-97h-569l318 351q60 65 98 117q48 65 48 120q0 69 -55 112q-47 36 -108 36q-92 0 -136 -67q-21 -32 -28 -98h-108q10 99 45 149q77 112 226 112q116 0 195 -74q75 -70 75 -172
q0 -87 -69 -177q-40 -52 -115 -135z" />
    <glyph glyph-name="threequarters" unicode="&#xbe;" horiz-adv-x="1712" vert-adv-y="2457" 
d="M377 930v91q68 1 104 19q64 34 64 111q0 61 -45 98q-37 31 -94 31q-76 0 -110 -48q-17 -23 -27 -80h-107q13 84 42 129q61 96 202 96q113 0 180 -67q65 -66 65 -156q0 -57 -28 -107q-17 -31 -71 -70q112 -72 112 -195q0 -119 -89 -189q-77 -59 -180 -59q-98 0 -170 53
q-80 59 -89 182h105q8 -56 29 -82q46 -57 129 -57q70 0 118 50q41 42 41 105q0 95 -80 128q-35 15 -101 17zM1284 1392l79 -44l-795 -1375l-79 48zM1474 228h102v-96h-102v-132h-109v132h-441l550 747v-651zM1365 228v336l-248 -336h248z" />
    <glyph glyph-name="Eth" unicode="&#xd0;" horiz-adv-x="1267" vert-adv-y="2457" 
d="M166 0v667h-137v137h137v561h279q212 0 350 -62q202 -92 306 -287q80 -148 80 -334q0 -326 -240 -524q-123 -102 -263 -135q-102 -23 -235 -23h-277zM319 142h132q241 0 390 125q186 156 186 415q0 174 -90 311q-153 230 -486 230h-132v-419h327v-137h-327v-525z" />
    <glyph glyph-name="multiply" unicode="&#xd7;" horiz-adv-x="1139" vert-adv-y="2457" 
d="M167 1013l86 86l317 -317l317 317l86 -86l-317 -317l317 -317l-86 -86l-317 317l-317 -317l-86 86l317 317z" />
    <glyph glyph-name="Yacute" unicode="&#xdd;" horiz-adv-x="1054" vert-adv-y="2457" 
d="M447 587l-447 778h176l348 -609l353 609h177l-454 -778v-587h-153v587zM796 1715l-294 -239l-88 65l245 265z" />
    <glyph glyph-name="Thorn" unicode="&#xde;" horiz-adv-x="909" vert-adv-y="2457" 
d="M317 407v-407h-153v1365h153v-191h95q162 0 249 -36q124 -52 183 -176q38 -81 38 -172q0 -111 -54 -204q-104 -179 -378 -179h-133zM317 546h124q144 0 218 67q73 67 73 178q0 116 -75 180q-73 62 -227 62h-113v-487z" />
    <glyph glyph-name="eth" unicode="&#xf0;" horiz-adv-x="1046" vert-adv-y="2457" 
d="M144 1410l59 89q170 -47 322 -136l226 113l84 -82l-210 -110q135 -123 230 -309q59 -116 90 -267q28 -133 28 -256q0 -240 -148 -368q-126 -109 -299 -109q-213 0 -345 153q-107 123 -107 293q0 198 140 328q132 122 316 122q93 0 162 -35q46 -22 108 -94
q-33 121 -69 189q-102 192 -222 292l-221 -114l-91 84l202 105q-99 64 -255 112zM523 739q-146 0 -232 -110q-68 -86 -68 -202q0 -147 90 -236q84 -84 207 -84q150 0 238 110q67 82 67 206q0 144 -90 232q-86 84 -212 84z" />
    <glyph glyph-name="yacute" unicode="&#xfd;" horiz-adv-x="920" vert-adv-y="2457" 
d="M396 81l-391 770h169l300 -609l275 609h165l-628 -1330h-165zM718 1275l-276 -279l-91 51l216 296z" />
    <glyph glyph-name="thorn" unicode="&#xfe;" horiz-adv-x="1050" vert-adv-y="2457" 
d="M274 -479h-146v1973h146v-764q117 140 294 140q189 0 308 -144q101 -122 101 -307q0 -214 -135 -339q-115 -105 -271 -105q-175 0 -297 144v-598zM550 738q-136 0 -219 -105q-65 -83 -65 -213q0 -153 89 -235q83 -78 194 -78q125 0 205 95q74 86 74 213q0 151 -89 244
q-76 79 -189 79z" />
    <glyph glyph-name="Amacron" unicode="&#x100;" horiz-adv-x="1242" vert-adv-y="2457" 
d="M914 386h-583l-165 -386h-166l629 1430l613 -1430h-167zM854 528l-228 547l-233 -547h461zM328 1687h600v-127h-600v127z" />
    <glyph glyph-name="amacron" unicode="&#x101;" horiz-adv-x="1050" vert-adv-y="2457" 
d="M775 851h146v-851h-146v118q-120 -143 -293 -143q-190 0 -309 145q-101 122 -101 307q0 215 135 339q115 105 272 105q176 0 296 -141v121zM501 739q-124 0 -206 -95q-74 -86 -74 -213q0 -153 89 -244q78 -80 190 -80q137 0 220 106q65 83 65 213q0 153 -89 235
q-84 78 -195 78zM256 1201h550v-123h-550v123z" />
    <glyph glyph-name="Abreve" unicode="&#x102;" horiz-adv-x="1242" vert-adv-y="2457" 
d="M914 386h-583l-165 -386h-166l629 1430l613 -1430h-167zM854 528l-228 547l-233 -547h461zM344 1764h131q17 -66 44 -94q41 -42 108 -42q121 0 154 136h131q-12 -102 -64 -165q-82 -101 -220 -101q-146 0 -226 101q-48 60 -58 165z" />
    <glyph glyph-name="abreve" unicode="&#x103;" horiz-adv-x="1050" vert-adv-y="2457" 
d="M775 851h146v-851h-146v118q-120 -143 -293 -143q-190 0 -309 145q-101 122 -101 307q0 215 135 339q115 105 272 105q176 0 296 -141v121zM501 739q-124 0 -206 -95q-74 -86 -74 -213q0 -153 89 -244q78 -80 190 -80q137 0 220 106q65 83 65 213q0 153 -89 235
q-84 78 -195 78zM262 1297h127q5 -61 37 -97q40 -46 102 -46q59 0 99 41q35 36 46 102h126q-11 -100 -63 -165q-80 -101 -207 -101q-132 0 -212 101q-52 66 -55 165z" />
    <glyph glyph-name="Aogonek" unicode="&#x104;" horiz-adv-x="1242" vert-adv-y="2457" 
d="M1242 0q-154 -98 -154 -183q0 -39 30 -62q22 -18 52 -18q51 0 111 34l-15 -125q-49 -33 -119 -33q-49 0 -89 19q-54 24 -83 72q-24 41 -24 88q0 74 61 137q31 31 97 71h-34l-161 386h-583l-165 -386h-166l629 1430zM854 528l-228 547l-233 -547h461z" />
    <glyph glyph-name="aogonek" unicode="&#x105;" horiz-adv-x="1050" vert-adv-y="2457" 
d="M921 0q-147 -103 -147 -179q0 -34 26 -57q20 -19 52 -19q48 0 105 27l-19 -112q-51 -28 -107 -28q-55 0 -96 23q-39 23 -63 64q-20 37 -20 74q0 108 153 207h-30v118q-120 -143 -293 -143q-190 0 -309 145q-101 122 -101 307q0 215 135 339q115 105 272 105
q176 0 296 -141v121h146v-851zM501 739q-124 0 -206 -95q-74 -86 -74 -213q0 -153 89 -244q78 -80 190 -80q137 0 220 106q65 83 65 213q0 153 -89 235q-84 78 -195 78z" />
    <glyph glyph-name="Cacute" unicode="&#x106;" horiz-adv-x="1293" vert-adv-y="2457" 
d="M1204 1253v-189q-87 83 -162 120q-123 61 -251 61q-146 0 -275 -78q-140 -84 -214 -230q-62 -122 -62 -261q0 -254 188 -416q163 -142 364 -142q151 0 291 84q51 30 121 95v-189q-194 -133 -411 -133q-172 0 -327 82q-197 104 -300 298q-80 152 -80 322q0 176 85 334
q97 181 273 282q165 95 357 95q148 0 279 -60q52 -25 124 -75zM1058 1715l-294 -239l-88 65l245 265z" />
    <glyph glyph-name="cacute" unicode="&#x107;" horiz-adv-x="868" vert-adv-y="2457" 
d="M789 789v-192q-67 75 -117 102q-71 39 -151 39q-136 0 -222 -101q-78 -90 -78 -215q0 -131 84 -223q84 -91 214 -91q100 0 184 59q36 26 91 90v-193q-136 -89 -270 -89q-218 0 -349 159q-103 125 -103 286q0 192 137 327q125 123 316 123q140 0 264 -81zM780 1275
l-275 -279l-92 51l216 296z" />
    <glyph glyph-name="Ccircumflex" unicode="&#x108;" horiz-adv-x="1293" vert-adv-y="2457" 
d="M1204 1253v-189q-87 83 -162 120q-123 61 -251 61q-146 0 -275 -78q-140 -84 -214 -230q-62 -122 -62 -261q0 -254 188 -416q163 -142 364 -142q151 0 291 84q51 30 121 95v-189q-194 -133 -411 -133q-172 0 -327 82q-197 104 -300 298q-80 152 -80 322q0 176 85 334
q97 181 273 282q165 95 357 95q148 0 279 -60q52 -25 124 -75zM505 1561l286 243l287 -244l-108 -83l-179 155l-180 -155z" />
    <glyph glyph-name="Cdotaccent" unicode="&#x10a;" horiz-adv-x="1293" vert-adv-y="2457" 
d="M1204 1253v-189q-87 83 -162 120q-123 61 -251 61q-146 0 -275 -78q-140 -84 -214 -230q-62 -122 -62 -261q0 -254 188 -416q163 -142 364 -142q151 0 291 84q51 30 121 95v-189q-194 -133 -411 -133q-172 0 -327 82q-197 104 -300 298q-80 152 -80 322q0 176 85 334
q97 181 273 282q165 95 357 95q148 0 279 -60q52 -25 124 -75zM791 1741q46 0 78 -32t32 -77q0 -46 -32 -78t-77 -32q-46 0 -78 32q-32 33 -32 79q0 44 32 76q33 32 77 32z" />
    <glyph glyph-name="cdotaccent" unicode="&#x10b;" horiz-adv-x="867" vert-adv-y="2457" 
d="M789 789v-192q-67 75 -117 102q-71 39 -151 39q-136 0 -222 -101q-78 -90 -78 -215q0 -131 84 -223q84 -91 214 -91q100 0 184 59q36 26 91 90v-193q-136 -89 -270 -89q-218 0 -349 159q-103 125 -103 286q0 192 137 327q125 123 316 123q140 0 264 -81zM515 1250
q44 0 74 -31q31 -30 31 -73q0 -44 -31 -74q-30 -31 -73 -31q-44 0 -74 31q-31 31 -31 75q0 42 31 72q31 31 73 31z" />
    <glyph glyph-name="Ccaron" unicode="&#x10c;" horiz-adv-x="1293" vert-adv-y="2457" 
d="M1204 1253v-189q-87 83 -162 120q-123 61 -251 61q-146 0 -275 -78q-140 -84 -214 -230q-62 -122 -62 -261q0 -254 188 -416q163 -142 364 -142q151 0 291 84q51 30 121 95v-189q-194 -133 -411 -133q-172 0 -327 82q-197 104 -300 298q-80 152 -80 322q0 176 85 334
q97 181 273 282q165 95 357 95q148 0 279 -60q52 -25 124 -75zM1078 1721l-285 -244l-288 244l109 83l179 -154l180 154z" />
    <glyph glyph-name="ccaron" unicode="&#x10d;" horiz-adv-x="868" vert-adv-y="2457" 
d="M789 789v-192q-67 75 -117 102q-71 39 -151 39q-136 0 -222 -101q-78 -90 -78 -215q0 -131 84 -223q84 -91 214 -91q100 0 184 59q36 26 91 90v-193q-136 -89 -270 -89q-218 0 -349 159q-103 125 -103 286q0 192 137 327q125 123 316 123q140 0 264 -81zM798 1263
l-282 -267l-284 267l105 80l179 -169l180 169z" />
    <glyph glyph-name="Dcaron" unicode="&#x10e;" horiz-adv-x="1267" vert-adv-y="2457" 
d="M164 0v1365h280q213 0 351 -62q202 -92 306 -287q80 -148 80 -333q0 -327 -240 -525q-123 -103 -263 -135q-102 -23 -236 -23h-278zM317 142h133q242 0 391 125q186 156 186 415q0 174 -90 311q-153 230 -487 230h-133v-1081zM853 1721l-285 -244l-288 244l109 83
l179 -154l180 154z" />
    <glyph glyph-name="dcaron" unicode="&#x10f;" horiz-adv-x="1243" vert-adv-y="2457" 
d="M775 1494h146v-1494h-146v118q-117 -143 -294 -143q-188 0 -308 145q-101 122 -101 307q0 213 136 338q114 105 270 105q176 0 297 -141v765zM501 738q-124 0 -206 -95q-74 -86 -74 -212q0 -153 89 -245q78 -79 191 -79q137 0 219 105q65 84 65 214q0 152 -89 234
q-83 78 -195 78zM1112 1501l142 -43l-134 -314l-104 32z" />
    <glyph glyph-name="Dcroat" unicode="&#x110;" horiz-adv-x="1267" vert-adv-y="2457" 
d="M166 0v667h-137v137h137v561h279q212 0 350 -62q202 -92 306 -287q80 -148 80 -334q0 -326 -240 -524q-123 -102 -263 -135q-102 -23 -235 -23h-277zM319 142h132q241 0 390 125q186 156 186 415q0 174 -90 311q-153 230 -486 230h-132v-419h327v-137h-327v-525z" />
    <glyph glyph-name="dcroat" unicode="&#x111;" horiz-adv-x="1050" vert-adv-y="2457" 
d="M775 1494h146v-191h123v-130h-123v-1173h-146v118q-117 -143 -295 -143q-188 0 -308 145q-101 122 -101 307q0 214 136 338q114 105 270 105q176 0 298 -141v444h-246v130h246v191zM500 738q-124 0 -206 -95q-74 -86 -74 -212q0 -153 89 -245q78 -79 190 -79
q138 0 220 105q65 84 65 214q0 152 -89 234q-83 78 -195 78z" />
    <glyph glyph-name="Emacron" unicode="&#x112;" horiz-adv-x="960" vert-adv-y="2457" 
d="M871 1223h-554v-405h539v-142h-539v-534h554v-142h-707v1365h707v-142zM217 1687h601v-127h-601v127z" />
    <glyph glyph-name="emacron" unicode="&#x113;" horiz-adv-x="961" vert-adv-y="2457" 
d="M889 395h-663q4 -87 36 -147q36 -67 98 -104t136 -37q108 0 181 71q35 33 81 108l123 -69q-51 -89 -105 -137q-118 -105 -285 -105q-204 0 -324 148q-95 118 -95 297q0 207 121 332q114 118 291 118q160 0 271 -100q134 -120 134 -349v-26zM735 518q-14 71 -49 119
q-75 101 -200 101q-131 0 -209 -113q-31 -46 -42 -107h500zM226 1201h550v-123h-550v123z" />
    <glyph glyph-name="Ebreve" unicode="&#x114;" horiz-adv-x="960" vert-adv-y="2457" 
d="M871 1223h-554v-405h539v-142h-539v-534h554v-142h-707v1365h707v-142zM234 1764h131q16 -66 44 -94q41 -42 107 -42q122 0 155 136h130q-12 -102 -63 -165q-82 -101 -221 -101q-145 0 -225 101q-49 60 -58 165z" />
    <glyph glyph-name="ebreve" unicode="&#x115;" horiz-adv-x="961" vert-adv-y="2457" 
d="M889 395h-663q4 -87 36 -147q36 -67 98 -104t136 -37q108 0 181 71q35 33 81 108l123 -69q-51 -89 -105 -137q-118 -105 -285 -105q-204 0 -324 148q-95 118 -95 297q0 207 121 332q114 118 291 118q160 0 271 -100q134 -120 134 -349v-26zM735 518q-14 71 -49 119
q-75 101 -200 101q-131 0 -209 -113q-31 -46 -42 -107h500zM236 1297h126q6 -61 38 -97q40 -46 101 -46q59 0 99 41q35 36 46 102h127q-12 -100 -63 -165q-80 -101 -208 -101q-132 0 -211 101q-53 66 -55 165z" />
    <glyph glyph-name="Edotaccent" unicode="&#x116;" horiz-adv-x="960" vert-adv-y="2457" 
d="M871 1223h-554v-405h539v-142h-539v-534h554v-142h-707v1365h707v-142zM517 1741q46 0 78 -32t32 -77q0 -46 -32 -78t-77 -32q-46 0 -78 32q-32 33 -32 79q0 44 32 76q33 32 77 32z" />
    <glyph glyph-name="edotaccent" unicode="&#x117;" horiz-adv-x="961" vert-adv-y="2457" 
d="M889 395h-663q4 -87 36 -147q36 -67 98 -104t136 -37q108 0 181 71q35 33 81 108l123 -69q-51 -89 -105 -137q-118 -105 -285 -105q-204 0 -324 148q-95 118 -95 297q0 207 121 332q114 118 291 118q160 0 271 -100q134 -120 134 -349v-26zM735 518q-14 71 -49 119
q-75 101 -200 101q-131 0 -209 -113q-31 -46 -42 -107h500zM501 1250q44 0 74 -31q31 -30 31 -73q0 -44 -31 -74q-30 -31 -73 -31q-44 0 -74 31q-31 31 -31 75q0 42 31 72q31 31 73 31z" />
    <glyph glyph-name="Eogonek" unicode="&#x118;" horiz-adv-x="960" vert-adv-y="2457" 
d="M871 0q-155 -98 -155 -183q0 -39 30 -62q22 -18 52 -18q52 0 112 34l-15 -125q-50 -33 -120 -33q-48 0 -88 19q-54 24 -83 72q-24 41 -24 88q0 74 61 137q30 31 97 71h-574v1365h707v-142h-554v-405h539v-142h-539v-534h554v-142z" />
    <glyph glyph-name="eogonek" unicode="&#x119;" horiz-adv-x="961" vert-adv-y="2457" 
d="M791 -228l-19 -112q-51 -28 -108 -28q-54 0 -95 23q-40 23 -63 64q-22 39 -22 81q0 57 41 112q21 28 77 77q-63 -13 -107 -13q-122 0 -221 56q-106 61 -157 172q-45 100 -45 217q0 206 121 331q114 118 291 118q160 0 271 -100q134 -120 134 -349v-26h-663q4 -87 36 -147
q36 -66 98 -103t136 -37q107 0 181 70q34 32 81 108l123 -69q-46 -81 -144 -179q-73 -73 -93 -104q-38 -61 -38 -108q0 -36 28 -62q20 -19 52 -19q48 0 105 27zM735 518q-14 71 -49 119q-75 101 -200 101q-131 0 -209 -113q-31 -46 -42 -107h500z" />
    <glyph glyph-name="Ecaron" unicode="&#x11a;" horiz-adv-x="960" vert-adv-y="2457" 
d="M871 1223h-554v-405h539v-142h-539v-534h554v-142h-707v1365h707v-142zM804 1721l-285 -244l-288 244l108 83l180 -154l180 154z" />
    <glyph glyph-name="ecaron" unicode="&#x11b;" horiz-adv-x="961" vert-adv-y="2457" 
d="M889 395h-663q4 -87 36 -147q36 -67 98 -104t136 -37q108 0 181 71q35 33 81 108l123 -69q-51 -89 -105 -137q-118 -105 -285 -105q-204 0 -324 148q-95 118 -95 297q0 207 121 332q114 118 291 118q160 0 271 -100q134 -120 134 -349v-26zM735 518q-14 71 -49 119
q-75 101 -200 101q-131 0 -209 -113q-31 -46 -42 -107h500zM784 1263l-282 -267l-284 267l105 80l179 -169l180 169z" />
    <glyph glyph-name="Gcircumflex" unicode="&#x11c;" horiz-adv-x="1519" vert-adv-y="2457" 
d="M864 685h569q0 -156 -19 -240q-44 -204 -227 -338q-179 -132 -401 -132q-181 0 -342 91q-181 103 -278 286q-81 153 -81 327q0 203 107 375q101 162 271 251q157 83 336 83q236 0 418 -139q68 -52 157 -158l-112 -102q-70 92 -129 139q-146 117 -334 117q-138 0 -261 -66
q-143 -76 -223 -215q-76 -131 -76 -287q0 -243 176 -406q166 -153 373 -153q182 0 328 119q119 98 145 239q5 26 8 67h-405v142zM521 1561l285 243l288 -244l-108 -83l-180 155l-179 -155z" />
    <glyph glyph-name="gcircumflex" unicode="&#x11d;" horiz-adv-x="1051" vert-adv-y="2457" 
d="M923 851v-832q0 -158 -28 -235q-50 -135 -173 -204q-98 -54 -220 -54q-188 0 -302 113q-105 106 -112 278h145q7 -94 40 -144q34 -55 97 -85t134 -30q147 0 218 105q55 80 55 231v124q-124 -141 -300 -141q-178 0 -299 137q-106 122 -106 309q0 207 129 333
q118 116 283 116q174 0 293 -141v120h146zM500 740q-138 0 -220 -114q-59 -82 -59 -201q0 -144 77 -226q83 -90 200 -90q135 0 220 105q66 80 66 209q0 158 -93 242q-84 75 -191 75zM248 1077l282 266l285 -266l-105 -80l-180 169l-179 -170z" />
    <glyph glyph-name="Gbreve" unicode="&#x11e;" horiz-adv-x="1519" vert-adv-y="2457" 
d="M864 685h569q0 -156 -19 -240q-44 -204 -227 -338q-179 -132 -401 -132q-181 0 -342 91q-181 103 -278 286q-81 153 -81 327q0 203 107 375q101 162 271 251q157 83 336 83q236 0 418 -139q68 -52 157 -158l-112 -102q-70 92 -129 139q-146 117 -334 117q-138 0 -261 -66
q-143 -76 -223 -215q-76 -131 -76 -287q0 -243 176 -406q166 -153 373 -153q182 0 328 119q119 98 145 239q5 26 8 67h-405v142zM524 1764h130q17 -66 45 -94q41 -42 107 -42q122 0 154 136h131q-12 -102 -63 -165q-82 -101 -221 -101q-145 0 -225 101q-49 60 -58 165z" />
    <glyph glyph-name="gbreve" unicode="&#x11f;" horiz-adv-x="1051" vert-adv-y="2457" 
d="M923 851v-832q0 -158 -28 -235q-50 -135 -173 -204q-98 -54 -220 -54q-188 0 -302 113q-105 106 -112 278h145q7 -94 40 -144q34 -55 97 -85t134 -30q147 0 218 105q55 80 55 231v124q-124 -141 -300 -141q-178 0 -299 137q-106 122 -106 309q0 207 129 333
q118 116 283 116q174 0 293 -141v120h146zM500 740q-138 0 -220 -114q-59 -82 -59 -201q0 -144 77 -226q83 -90 200 -90q135 0 220 105q66 80 66 209q0 158 -93 242q-84 75 -191 75zM263 1297h126q6 -61 38 -97q40 -46 102 -46q59 0 99 41q35 36 46 102h126
q-11 -100 -63 -165q-80 -101 -207 -101q-133 0 -212 101q-52 66 -55 165z" />
    <glyph glyph-name="Gdotaccent" unicode="&#x120;" horiz-adv-x="1519" vert-adv-y="2457" 
d="M864 685h569q0 -156 -19 -240q-44 -204 -227 -338q-179 -132 -401 -132q-181 0 -342 91q-181 103 -278 286q-81 153 -81 327q0 203 107 375q101 162 271 251q157 83 336 83q236 0 418 -139q68 -52 157 -158l-112 -102q-70 92 -129 139q-146 117 -334 117q-138 0 -261 -66
q-143 -76 -223 -215q-76 -131 -76 -287q0 -243 176 -406q166 -153 373 -153q182 0 328 119q119 98 145 239q5 26 8 67h-405v142zM807 1741q46 0 78 -32t32 -77q0 -46 -32 -78t-77 -32q-46 0 -78 32q-32 33 -32 79q0 44 32 76t77 32z" />
    <glyph glyph-name="gdotaccent" unicode="&#x121;" horiz-adv-x="1051" vert-adv-y="2457" 
d="M923 851v-832q0 -158 -28 -235q-50 -135 -173 -204q-98 -54 -220 -54q-188 0 -302 113q-105 106 -112 278h145q7 -94 40 -144q34 -55 97 -85t134 -30q147 0 218 105q55 80 55 231v124q-124 -141 -300 -141q-178 0 -299 137q-106 122 -106 309q0 207 129 333
q118 116 283 116q174 0 293 -141v120h146zM500 740q-138 0 -220 -114q-59 -82 -59 -201q0 -144 77 -226q83 -90 200 -90q135 0 220 105q66 80 66 209q0 158 -93 242q-84 75 -191 75zM531 1250q44 0 74 -31q31 -30 31 -73q0 -44 -31 -74q-30 -31 -73 -31q-44 0 -74 31
q-31 31 -31 75q0 42 31 72q31 31 73 31z" />
    <glyph glyph-name="Gcommaaccent" unicode="&#x122;" horiz-adv-x="1519" vert-adv-y="2457" 
d="M864 685h569q0 -156 -19 -240q-44 -204 -227 -338q-179 -132 -401 -132q-181 0 -342 91q-181 103 -278 286q-81 153 -81 327q0 203 107 375q101 162 271 251q157 83 336 83q236 0 418 -139q68 -52 157 -158l-112 -102q-70 92 -129 139q-146 117 -334 117q-138 0 -261 -66
q-143 -76 -223 -215q-76 -131 -76 -287q0 -243 176 -406q166 -153 373 -153q182 0 328 119q119 98 145 239q5 26 8 67h-405v142zM727 -109l155 -49l-161 -312l-104 34z" />
    <glyph glyph-name="gcommaaccent" unicode="&#x123;" horiz-adv-x="1051" vert-adv-y="2457" 
d="M923 851v-832q0 -158 -28 -235q-50 -135 -173 -204q-98 -54 -220 -54q-188 0 -302 113q-105 106 -112 278h145q7 -94 40 -144q34 -55 97 -85t134 -30q147 0 218 105q55 80 55 231v124q-124 -141 -300 -141q-178 0 -299 137q-106 122 -106 309q0 207 129 333
q118 116 283 116q174 0 293 -141v120h146zM500 740q-138 0 -220 -114q-59 -82 -59 -201q0 -144 77 -226q83 -90 200 -90q135 0 220 105q66 80 66 209q0 158 -93 242q-84 75 -191 75zM581 1000l-141 43l133 314l105 -32z" />
    <glyph glyph-name="Hcircumflex" unicode="&#x124;" horiz-adv-x="1331" vert-adv-y="2457" 
d="M317 810h698v555h153v-1365h-153v668h-698v-668h-153v1365h153v-555zM379 1561l285 243l288 -244l-108 -83l-179 155l-180 -155z" />
    <glyph glyph-name="Hbar" unicode="&#x126;" horiz-adv-x="1331" vert-adv-y="2457" 
d="M1014 1365h153v-206h137v-137h-137v-1022h-153v668h-697v-668h-153v1022h-137v137h137v206h153v-206h697v206zM1014 1022h-697v-212h697v212z" />
    <glyph glyph-name="hbar" unicode="&#x127;" horiz-adv-x="939" vert-adv-y="2457" 
d="M520 1303v-130h-246v-422q40 47 72 69q74 50 172 50q105 0 184 -56q78 -56 99 -158q10 -48 10 -129v-527h-146v517q0 102 -28 151q-41 70 -148 70q-132 0 -181 -101q-34 -70 -34 -212v-425h-146v1173h-123v130h123v191h146v-191h246z" />
    <glyph glyph-name="Itilde" unicode="&#x128;" horiz-adv-x="481" vert-adv-y="2457" 
d="M316 1365v-1365h-153v1365h153zM26 1528l-88 69q73 146 182 146q46 0 131 -43q79 -41 112 -41q50 0 94 87l87 -66q-71 -148 -187 -148q-49 0 -133 43q-82 41 -115 41q-30 0 -53 -32q-10 -14 -30 -56z" />
    <glyph glyph-name="itilde" unicode="&#x129;" horiz-adv-x="409" vert-adv-y="2457" 
d="M278 851v-851h-146v851h146zM0 1037l-85 69q19 52 51 87q54 59 124 59q57 0 128 -44q66 -40 95 -40q53 0 96 87l85 -66q-20 -52 -51 -85q-60 -63 -130 -63q-43 0 -116 42q-76 44 -110 44q-59 0 -87 -90z" />
    <glyph glyph-name="Imacron" unicode="&#x12a;" horiz-adv-x="481" vert-adv-y="2457" 
d="M317 1365v-1365h-153v1365h153zM22 1687h437v-127h-437v127z" />
    <glyph glyph-name="imacron" unicode="&#x12b;" horiz-adv-x="403" vert-adv-y="2457" 
d="M274 851v-851h-146v851h146zM-19 1201h441v-123h-441v123z" />
    <glyph glyph-name="ibreve" unicode="&#x12d;" horiz-adv-x="403" vert-adv-y="2457" 
d="M275 851v-851h-146v851h146zM-37 1290h124q1 -57 25 -91q33 -46 86 -46q52 0 85 41q28 36 33 96h124q-8 -98 -53 -159q-73 -98 -188 -98q-86 0 -155 60q-78 67 -81 164v33z" />
    <glyph glyph-name="Iogonek" unicode="&#x12e;" horiz-adv-x="481" vert-adv-y="2457" 
d="M317 0q-95 -109 -95 -185q0 -34 27 -56q18 -14 50 -14q37 0 82 26l-12 -122q-57 -28 -103 -28q-82 0 -133 58q-42 49 -42 116q0 72 55 134q26 29 79 71h-61v1365h153v-1365z" />
    <glyph glyph-name="iogonek" unicode="&#x12f;" horiz-adv-x="403" vert-adv-y="2457" 
d="M274 0q-83 -113 -83 -182q0 -40 29 -62q16 -12 35 -12q35 0 74 23l-14 -106q-38 -28 -81 -28q-42 0 -81 23q-40 24 -63 64q-20 36 -20 74q0 75 123 206h-65v851h146v-851zM202 1275q43 0 73 -30q31 -31 31 -74q0 -44 -31 -74q-30 -31 -74 -31q-43 0 -73 31q-31 31 -31 75
q0 42 31 73q31 30 74 30z" />
    <glyph glyph-name="Idotaccent" unicode="&#x130;" horiz-adv-x="481" vert-adv-y="2457" 
d="M317 1365v-1365h-153v1365h153zM240 1741q46 0 78 -32t32 -77q0 -46 -32 -78t-77 -32q-46 0 -78 32q-32 33 -32 79q0 44 32 76q33 32 77 32z" />
    <glyph glyph-name="IJ" unicode="&#x132;" horiz-adv-x="1096" vert-adv-y="2457" 
d="M317 1365v-1365h-153v1365h153zM932 1365v-1103q0 -134 -23 -203q-39 -116 -142 -168q-64 -33 -136 -33q-120 0 -246 102l84 117q35 -31 56 -44q48 -32 103 -32q80 0 121 70q30 53 30 191v1103h153z" />
    <glyph glyph-name="ij" unicode="&#x133;" horiz-adv-x="821" vert-adv-y="2457" 
d="M277 851v-851h-146v851h146zM205 1275q43 0 73 -30q31 -31 31 -74q0 -44 -31 -74q-30 -31 -74 -31q-43 0 -73 31q-31 31 -31 75q0 42 31 73q31 30 74 30zM689 851v-1330h-146v1330h146zM617 1275q43 0 73 -30q31 -31 31 -74q0 -44 -31 -74q-30 -31 -73 -31q-44 0 -74 31
q-31 31 -31 75q0 42 31 73q31 30 74 30z" />
    <glyph glyph-name="Kcommaaccent" unicode="&#x136;" horiz-adv-x="1137" vert-adv-y="2457" 
d="M317 779l582 586h204l-640 -636l661 -729h-209l-559 626l-39 -38v-588h-153v1365h153v-586zM536 -109l155 -49l-161 -312l-104 34z" />
    <glyph glyph-name="kcommaaccent" unicode="&#x137;" horiz-adv-x="840" vert-adv-y="2457" 
d="M274 1494v-957l308 314h194l-364 -362l433 -489h-191l-344 387l-36 -37v-350h-146v1494h146zM387 -109l141 -43l-133 -314l-105 33z" />
    <glyph glyph-name="kgreenlandic" unicode="&#x138;" horiz-adv-x="854" vert-adv-y="2457" 
d="M277 851v-314l308 314h194l-364 -362l433 -489h-191l-344 387l-36 -37v-350h-146v851h146z" />
    <glyph glyph-name="Lacute" unicode="&#x139;" horiz-adv-x="706" vert-adv-y="2457" 
d="M317 1365v-1223h375v-142h-528v1365h153zM527 1715l-294 -239l-88 65l245 265z" />
    <glyph glyph-name="lacute" unicode="&#x13a;" horiz-adv-x="403" vert-adv-y="2457" 
d="M274 1494v-1494h-146v1494h146zM447 1810l-246 -239l-88 59l204 272z" />
    <glyph glyph-name="Lcommaaccent" unicode="&#x13b;" horiz-adv-x="706" vert-adv-y="2457" 
d="M317 1365v-1223h375v-142h-528v1365h153zM371 -109l155 -49l-161 -312l-104 34z" />
    <glyph glyph-name="lcommaaccent" unicode="&#x13c;" horiz-adv-x="403" vert-adv-y="2457" 
d="M274 1494v-1494h-146v1494h146zM138 -109l141 -43l-134 -314l-104 33z" />
    <glyph glyph-name="Lcaron" unicode="&#x13d;" horiz-adv-x="706" vert-adv-y="2457" 
d="M317 1365v-1223h375v-142h-528v1365h153zM535 1372l156 -50l-161 -311l-105 34z" />
    <glyph glyph-name="lcaron" unicode="&#x13e;" horiz-adv-x="596" vert-adv-y="2457" 
d="M274 1494v-1494h-146v1494h146zM465 1501l142 -43l-134 -314l-104 32z" />
    <glyph glyph-name="Ldot" unicode="&#x13f;" horiz-adv-x="706" vert-adv-y="2457" 
d="M317 1365v-1223h375v-142h-528v1365h153zM599 828q54 0 93 -38q38 -38 38 -93q0 -54 -38 -93q-39 -38 -93 -38q-55 0 -93 38q-38 39 -38 95q0 53 38 91q39 38 93 38z" />
    <glyph glyph-name="ldot" unicode="&#x140;" horiz-adv-x="665" vert-adv-y="2457" 
d="M274 1494v-1494h-146v1494h146zM544 878q54 0 93 -38q38 -38 38 -93q0 -54 -38 -93q-39 -38 -93 -38q-55 0 -93 39q-38 38 -38 94q0 53 38 91q39 38 93 38z" />
    <glyph glyph-name="Lslash" unicode="&#x141;" horiz-adv-x="706" vert-adv-y="2457" 
d="M317 806l233 164v-155l-233 -164v-509h375v-142h-528v584l-137 -95v155l137 95v626h153v-559z" />
    <glyph glyph-name="lslash" unicode="&#x142;" horiz-adv-x="403" vert-adv-y="2457" 
d="M275 864l130 97v-156l-130 -97v-708h-146v639l-130 -96v156l130 95v700h146v-630z" />
    <glyph glyph-name="Nacute" unicode="&#x143;" horiz-adv-x="1544" vert-adv-y="2457" 
d="M164 0v1422l1064 -1114v1057h153v-1427l-1064 1114v-1052h-153zM1035 1715l-294 -239l-88 65l245 265z" />
    <glyph glyph-name="nacute" unicode="&#x144;" horiz-adv-x="938" vert-adv-y="2457" 
d="M128 851h146v-103q40 49 72 72q71 51 172 51q105 0 183 -56q77 -54 98 -159q10 -49 10 -128v-528h-146v503q0 119 -28 165q-43 71 -150 71q-128 0 -176 -101q-35 -72 -35 -213v-425h-146v851zM714 1275l-276 -279l-91 51l215 296z" />
    <glyph glyph-name="Ncommaaccent" unicode="&#x145;" horiz-adv-x="1544" vert-adv-y="2457" 
d="M164 0v1422l1064 -1114v1057h153v-1427l-1064 1114v-1052h-153zM699 -109l155 -49l-161 -312l-105 34z" />
    <glyph glyph-name="ncommaaccent" unicode="&#x146;" horiz-adv-x="938" vert-adv-y="2457" 
d="M128 851h146v-103q40 49 72 72q71 51 172 51q105 0 183 -56q77 -54 98 -159q10 -49 10 -128v-528h-146v503q0 119 -28 165q-43 71 -150 71q-128 0 -176 -101q-35 -72 -35 -213v-425h-146v851zM402 -109l141 -43l-133 -314l-105 33z" />
    <glyph glyph-name="Ncaron" unicode="&#x147;" horiz-adv-x="1544" vert-adv-y="2457" 
d="M164 0v1422l1064 -1114v1057h153v-1427l-1064 1114v-1052h-153zM1059 1721l-285 -244l-288 244l108 83l180 -154l179 154z" />
    <glyph glyph-name="ncaron" unicode="&#x148;" horiz-adv-x="938" vert-adv-y="2457" 
d="M128 851h146v-103q40 49 72 72q71 51 172 51q105 0 183 -56q77 -54 98 -159q10 -49 10 -128v-528h-146v503q0 119 -28 165q-43 71 -150 71q-128 0 -176 -101q-35 -72 -35 -213v-425h-146v851zM738 1263l-282 -267l-284 267l105 80l179 -169l180 169z" />
    <glyph glyph-name="napostrophe" unicode="&#x149;" horiz-adv-x="1187" vert-adv-y="2457" 
d="M259 1434l134 -49l-206 -462l-98 39zM375 851h146v-103q40 49 72 72q71 51 172 51q105 0 184 -56q77 -54 97 -159q10 -49 10 -128v-528h-146v503q0 119 -28 165q-43 71 -150 71q-128 0 -176 -101q-35 -72 -35 -213v-425h-146v851z" />
    <glyph glyph-name="Eng" unicode="&#x14a;" horiz-adv-x="1331" vert-adv-y="2457" 
d="M164 1365h153v-175q65 79 116 116q114 82 274 82q168 0 292 -90q121 -87 153 -255q16 -80 16 -206v-489q0 -240 -78 -345q-109 -145 -320 -145q-75 0 -170 29v147q90 -33 164 -33q139 0 199 66q35 39 46 113q6 42 6 136v550q0 133 -17 192q-29 100 -120 147
q-80 40 -188 40q-225 0 -312 -162q-61 -114 -61 -341v-742h-153v1365z" />
    <glyph glyph-name="eng" unicode="&#x14b;" horiz-adv-x="943" vert-adv-y="2457" 
d="M131 851h146v-103q40 49 72 72q71 51 172 51q105 0 183 -56q77 -54 98 -159q10 -49 10 -128v-365q0 -149 -50 -214q-69 -91 -203 -91q-47 0 -106 18v147q56 -20 97 -20q67 0 93 42q23 35 23 152v306q0 119 -28 165q-43 71 -151 71q-127 0 -175 -101q-35 -72 -35 -213
v-425h-146v851z" />
    <glyph glyph-name="Omacron" unicode="&#x14c;" horiz-adv-x="1593" vert-adv-y="2457" 
d="M798 1388q189 0 349 -94q168 -97 264 -260q96 -164 96 -353t-97 -354q-93 -158 -252 -252q-169 -100 -368 -100q-180 0 -347 94q-176 101 -270 271q-87 157 -87 350q0 291 225 503q112 106 258 156q116 39 229 39zM797 1245q-254 0 -421 -195q-136 -158 -136 -361
q0 -252 174 -416q90 -84 205 -125q87 -30 173 -30q155 0 289 81q132 78 203 209q69 126 69 273q0 239 -170 407q-89 87 -205 126q-91 31 -181 31zM496 1687h601v-127h-601v127z" />
    <glyph glyph-name="omacron" unicode="&#x14d;" horiz-adv-x="1043" vert-adv-y="2457" 
d="M521 870q201 0 334 -146q115 -126 115 -301q0 -204 -149 -336q-126 -112 -303 -112q-122 0 -228 62q-108 64 -166 175q-52 98 -52 218q0 186 140 319q128 121 309 121zM520 738q-146 0 -232 -110q-67 -86 -67 -201q0 -147 89 -236q84 -84 207 -84q150 0 238 109
q66 83 66 206q0 144 -90 232q-85 84 -211 84zM246 1201h550v-123h-550v123z" />
    <glyph glyph-name="Ohungarumlaut" unicode="&#x150;" horiz-adv-x="1593" vert-adv-y="2457" 
d="M798 1388q189 0 349 -94q168 -97 264 -260q96 -164 96 -353t-97 -354q-93 -158 -252 -252q-169 -100 -368 -100q-180 0 -347 94q-176 101 -270 271q-87 157 -87 350q0 291 225 503q112 106 258 156q116 39 229 39zM797 1245q-254 0 -421 -195q-136 -158 -136 -361
q0 -252 174 -416q90 -84 205 -125q87 -30 173 -30q155 0 289 81q132 78 203 209q69 126 69 273q0 239 -170 407q-89 87 -205 126q-91 31 -181 31zM951 1732l-300 -248l-73 57l242 265zM1292 1732l-300 -248l-72 57l242 265z" />
    <glyph glyph-name="ohungarumlaut" unicode="&#x151;" horiz-adv-x="1043" vert-adv-y="2457" 
d="M521 870q201 0 334 -146q115 -126 115 -301q0 -204 -149 -336q-126 -112 -303 -112q-122 0 -228 62q-108 64 -166 175q-52 98 -52 218q0 186 140 319q128 121 309 121zM520 738q-146 0 -232 -110q-67 -86 -67 -201q0 -147 89 -236q84 -84 207 -84q150 0 238 109
q66 83 66 206q0 144 -90 232q-85 84 -211 84zM687 1280l-272 -284l-75 48l216 299zM960 1280l-272 -284l-75 48l216 299z" />
    <glyph glyph-name="Racute" unicode="&#x154;" horiz-adv-x="1001" vert-adv-y="2457" 
d="M520 611l434 -611h-186l-412 599h-39v-599h-153v1365h221q144 0 226 -26q132 -42 197 -151q55 -91 55 -206q0 -200 -148 -303q-85 -59 -195 -68zM317 733h95q139 0 212 55q89 68 89 194q0 134 -99 197q-71 44 -206 44h-91v-490zM743 1715l-294 -239l-88 65l245 265z" />
    <glyph glyph-name="racute" unicode="&#x155;" horiz-adv-x="582" vert-adv-y="2457" 
d="M128 851h146v-92q42 51 67 72q50 41 125 41q63 0 130 -37l-69 -132q-45 30 -85 30q-57 0 -103 -39q-42 -36 -56 -108q-9 -51 -9 -138v-448h-146v851zM590 1275l-276 -279l-91 51l216 296z" />
    <glyph glyph-name="Rcommaaccent" unicode="&#x156;" horiz-adv-x="1001" vert-adv-y="2457" 
d="M520 611l434 -611h-186l-412 599h-39v-599h-153v1365h221q144 0 226 -26q132 -42 197 -151q55 -91 55 -206q0 -200 -148 -303q-85 -59 -195 -68zM317 733h95q139 0 212 55q89 68 89 194q0 134 -99 197q-71 44 -206 44h-91v-490zM456 -109l155 -49l-161 -312l-104 34z" />
    <glyph glyph-name="rcommaaccent" unicode="&#x157;" horiz-adv-x="582" vert-adv-y="2457" 
d="M129 851h146v-92q42 51 67 72q50 41 125 41q63 0 130 -37l-69 -132q-45 30 -84 30q-58 0 -104 -39q-42 -36 -56 -108q-9 -51 -9 -138v-448h-146v851zM145 -109l141 -43l-134 -314l-104 33z" />
    <glyph glyph-name="Rcaron" unicode="&#x158;" horiz-adv-x="1001" vert-adv-y="2457" 
d="M520 611l434 -611h-186l-412 599h-39v-599h-153v1365h221q144 0 226 -26q132 -42 197 -151q55 -91 55 -206q0 -200 -148 -303q-85 -59 -195 -68zM317 733h95q139 0 212 55q89 68 89 194q0 134 -99 197q-71 44 -206 44h-91v-490zM760 1721l-285 -244l-288 244l108 83
l180 -154l179 154z" />
    <glyph glyph-name="rcaron" unicode="&#x159;" horiz-adv-x="582" vert-adv-y="2457" 
d="M128 851h146v-92q42 51 67 72q50 41 125 41q63 0 130 -37l-69 -132q-45 30 -85 30q-57 0 -103 -39q-42 -36 -56 -108q-9 -51 -9 -138v-448h-146v851zM612 1263l-282 -267l-285 267l105 80l180 -169l179 169z" />
    <glyph glyph-name="Sacute" unicode="&#x15a;" horiz-adv-x="1032" vert-adv-y="2457" 
d="M893 1175l-120 -79q-40 63 -71 90q-65 59 -163 59q-105 0 -168 -68q-58 -62 -58 -143q0 -89 85 -147q50 -33 107 -58l130 -57q167 -74 234 -157q75 -92 75 -220q0 -190 -143 -315q-121 -105 -291 -105q-215 0 -339 165q-55 73 -82 188l148 41q20 -93 55 -141
q36 -50 94 -79q61 -31 130 -31q118 0 198 83q76 78 76 186q0 123 -113 194q-52 33 -242 118q-151 69 -212 146q-64 81 -64 191q0 173 136 273q108 79 246 79q230 0 352 -213zM813 1715l-294 -239l-88 65l245 265z" />
    <glyph glyph-name="sacute" unicode="&#x15b;" horiz-adv-x="695" vert-adv-y="2457" 
d="M597 716l-121 -63q-45 85 -118 85q-47 0 -78 -34q-24 -25 -24 -61q0 -41 36 -69q27 -21 101 -52q115 -48 162 -82q93 -68 93 -187q0 -125 -91 -205q-83 -73 -200 -73q-213 0 -297 217l128 54q25 -51 44 -76q47 -63 127 -63q71 0 110 48q30 38 30 86q0 53 -38 88
q-24 22 -100 55q-117 50 -170 88q-75 55 -75 159q0 111 80 178q73 61 168 61q154 0 233 -154zM633 1275l-276 -279l-91 51l216 296z" />
    <glyph glyph-name="Scircumflex" unicode="&#x15c;" horiz-adv-x="1032" vert-adv-y="2457" 
d="M893 1175l-120 -79q-40 63 -71 90q-65 59 -163 59q-105 0 -168 -68q-58 -62 -58 -143q0 -89 85 -147q50 -33 107 -58l130 -57q167 -74 234 -157q75 -92 75 -220q0 -190 -143 -315q-121 -105 -291 -105q-215 0 -339 165q-55 73 -82 188l148 41q20 -93 55 -141
q36 -50 94 -79q61 -31 130 -31q118 0 198 83q76 78 76 186q0 123 -113 194q-52 33 -242 118q-151 69 -212 146q-64 81 -64 191q0 173 136 273q108 79 246 79q230 0 352 -213zM257 1561l285 243l288 -244l-108 -83l-180 155l-179 -155z" />
    <glyph glyph-name="scircumflex" unicode="&#x15d;" horiz-adv-x="695" vert-adv-y="2457" 
d="M597 716l-121 -63q-45 85 -118 85q-47 0 -78 -34q-24 -25 -24 -61q0 -41 36 -69q27 -21 101 -52q115 -48 162 -82q93 -68 93 -187q0 -125 -91 -205q-83 -73 -200 -73q-213 0 -297 217l128 54q25 -51 44 -76q47 -63 127 -63q71 0 110 48q30 38 30 86q0 53 -38 88
q-24 22 -100 55q-117 50 -170 88q-75 55 -75 159q0 111 80 178q73 61 168 61q154 0 233 -154zM81 1077l282 266l285 -266l-105 -80l-180 169l-179 -170z" />
    <glyph glyph-name="Scedilla" unicode="&#x15e;" horiz-adv-x="1032" vert-adv-y="2457" 
d="M893 1175l-120 -79q-40 63 -71 90q-65 59 -163 59q-105 0 -168 -68q-58 -62 -58 -143q0 -89 85 -147q50 -33 107 -58l130 -57q167 -74 234 -157q75 -92 75 -220q0 -190 -143 -315q-121 -105 -291 -105q-215 0 -339 165q-55 73 -82 188l148 41q20 -93 55 -141
q36 -50 94 -79q61 -31 130 -31q118 0 198 83q76 78 76 186q0 123 -113 194q-52 33 -242 118q-151 69 -212 146q-64 81 -64 191q0 173 136 273q108 79 246 79q230 0 352 -213zM627 -162l-226 -265l-104 53l183 278z" />
    <glyph glyph-name="scedilla" unicode="&#x15f;" horiz-adv-x="695" vert-adv-y="2457" 
d="M597 716l-121 -63q-45 85 -118 85q-47 0 -78 -34q-24 -25 -24 -61q0 -41 36 -69q27 -21 101 -52q115 -48 162 -82q93 -68 93 -187q0 -125 -91 -205q-83 -73 -200 -73q-213 0 -297 217l128 54q25 -51 44 -76q47 -63 127 -63q71 0 110 48q30 38 30 86q0 53 -38 88
q-24 22 -100 55q-117 50 -170 88q-75 55 -75 159q0 111 80 178q73 61 168 61q154 0 233 -154zM447 -151l-206 -263l-102 51l172 267z" />
    <glyph glyph-name="Scaron" unicode="&#x160;" horiz-adv-x="1032" vert-adv-y="2457" 
d="M893 1175l-120 -79q-40 63 -71 90q-65 59 -163 59q-105 0 -168 -68q-58 -62 -58 -143q0 -89 85 -147q50 -33 107 -58l130 -57q167 -74 234 -157q75 -92 75 -220q0 -190 -143 -315q-121 -105 -291 -105q-215 0 -339 165q-55 73 -82 188l148 41q20 -93 55 -141
q36 -50 94 -79q61 -31 130 -31q118 0 198 83q76 78 76 186q0 123 -113 194q-52 33 -242 118q-151 69 -212 146q-64 81 -64 191q0 173 136 273q108 79 246 79q230 0 352 -213zM830 1721l-285 -244l-288 244l108 83l180 -154l180 154z" />
    <glyph glyph-name="scaron" unicode="&#x161;" horiz-adv-x="695" vert-adv-y="2457" 
d="M597 716l-121 -63q-45 85 -118 85q-47 0 -78 -34q-24 -25 -24 -61q0 -41 36 -69q27 -21 101 -52q115 -48 162 -82q93 -68 93 -187q0 -125 -91 -205q-83 -73 -200 -73q-213 0 -297 217l128 54q25 -51 44 -76q47 -63 127 -63q71 0 110 48q30 38 30 86q0 53 -38 88
q-24 22 -100 55q-117 50 -170 88q-75 55 -75 159q0 111 80 178q73 61 168 61q154 0 233 -154zM648 1263l-282 -267l-285 267l105 80l180 -169l179 169z" />
    <glyph glyph-name="Tcommaaccent" unicode="&#x162;" horiz-adv-x="842" vert-adv-y="2457" 
d="M497 1223v-1223h-153v1223h-330v142h815v-142h-332zM355 -109l155 -49l-161 -312l-105 34z" />
    <glyph glyph-name="tcommaaccent" unicode="&#x163;" horiz-adv-x="417" vert-adv-y="2457" 
d="M275 716v-716h-146v716h-89v135h89v305h146v-305h150v-135h-150zM141 -109l141 -43l-133 -314l-105 33z" />
    <glyph glyph-name="Tcaron" unicode="&#x164;" horiz-adv-x="842" vert-adv-y="2457" 
d="M497 1223v-1223h-153v1223h-330v142h815v-142h-332zM708 1721l-285 -244l-288 244l108 83l180 -154l179 154z" />
    <glyph glyph-name="tcaron" unicode="&#x165;" horiz-adv-x="611" vert-adv-y="2457" 
d="M275 716v-716h-146v716h-89v135h89v305h146v-305h150v-135h-150zM481 1398l141 -43l-133 -314l-105 33z" />
    <glyph glyph-name="Tbar" unicode="&#x166;" horiz-adv-x="870" vert-adv-y="2457" 
d="M783 973v-137h-273v-836h-153v836h-273v137h273v250h-330v142h815v-142h-332v-250h273z" />
    <glyph glyph-name="tbar" unicode="&#x167;" horiz-adv-x="450" vert-adv-y="2457" 
d="M443 593v-130h-150v-463h-146v463h-89v130h89v123h-89v135h89v305h146v-305h150v-135h-150v-123h150z" />
    <glyph glyph-name="Utilde" unicode="&#x168;" horiz-adv-x="1301" vert-adv-y="2457" 
d="M317 1365v-836q0 -129 15 -187q26 -102 119 -164q91 -60 199 -60q126 0 225 78q81 65 100 173q9 52 9 160v836h153v-878q0 -142 -34 -227q-56 -137 -195 -217q-119 -68 -258 -68q-163 0 -297 93q-127 89 -167 227q-22 74 -22 192v878h153zM437 1528l-88 69
q73 146 182 146q46 0 131 -43q79 -41 112 -41q50 0 93 87l88 -66q-71 -148 -187 -148q-49 0 -133 43q-82 41 -115 41q-31 0 -53 -32q-10 -14 -30 -56z" />
    <glyph glyph-name="utilde" unicode="&#x169;" horiz-adv-x="931" vert-adv-y="2457" 
d="M274 851v-497q0 -110 26 -159q23 -43 70 -66q44 -22 95 -22q76 0 128 43q46 38 57 108q6 36 6 96v497h146v-513q0 -121 -30 -185q-42 -92 -137 -140q-76 -38 -170 -38q-164 0 -260 107q-51 57 -66 126q-11 54 -11 130v513h146zM261 1037l-85 69q18 52 51 87q54 59 124 59
q57 0 128 -44q65 -40 95 -40q52 0 96 87l85 -66q-20 -52 -52 -85q-59 -63 -129 -63q-43 0 -116 42q-76 44 -111 44q-58 0 -86 -90z" />
    <glyph glyph-name="Umacron" unicode="&#x16a;" horiz-adv-x="1301" vert-adv-y="2457" 
d="M317 1365v-836q0 -129 15 -187q26 -102 119 -164q91 -60 199 -60q126 0 225 78q81 65 100 173q9 52 9 160v836h153v-878q0 -142 -34 -227q-56 -137 -195 -217q-119 -68 -258 -68q-163 0 -297 93q-127 89 -167 227q-22 74 -22 192v878h153zM350 1687h601v-127h-601v127z
" />
    <glyph glyph-name="umacron" unicode="&#x16b;" horiz-adv-x="931" vert-adv-y="2457" 
d="M274 851v-497q0 -110 26 -159q23 -43 70 -66q44 -22 95 -22q76 0 128 43q46 38 57 108q6 36 6 96v497h146v-513q0 -121 -30 -185q-42 -92 -137 -140q-76 -38 -170 -38q-164 0 -260 107q-51 57 -66 126q-11 54 -11 130v513h146zM190 1201h550v-123h-550v123z" />
    <glyph glyph-name="ubreve" unicode="&#x16d;" horiz-adv-x="931" vert-adv-y="2457" 
d="M274 851v-497q0 -110 26 -159q23 -43 70 -66q44 -22 95 -22q76 0 128 43q46 38 57 108q6 36 6 96v497h146v-513q0 -121 -30 -185q-42 -92 -137 -140q-76 -38 -170 -38q-164 0 -260 107q-51 57 -66 126q-11 54 -11 130v513h146zM197 1297h126q6 -61 38 -97q40 -46 101 -46
q59 0 99 41q35 36 46 102h127q-12 -100 -63 -165q-80 -101 -208 -101q-132 0 -211 101q-53 66 -55 165z" />
    <glyph glyph-name="Uring" unicode="&#x16e;" horiz-adv-x="1301" vert-adv-y="2457" 
d="M317 1365v-836q0 -129 15 -187q26 -102 119 -164q91 -60 199 -60q126 0 225 78q81 65 100 173q9 52 9 160v836h153v-878q0 -142 -34 -227q-56 -137 -195 -217q-119 -68 -258 -68q-163 0 -297 93q-127 89 -167 227q-22 74 -22 192v878h153zM650 1835q77 0 132 -54
q54 -55 54 -131q0 -77 -54 -132q-55 -54 -131 -54q-78 0 -132 54q-54 55 -54 134q0 75 54 129q56 54 131 54zM650 1735q-35 0 -60 -25t-25 -59q0 -37 25 -62t61 -25q35 0 60 25t25 61t-25 60q-25 25 -61 25z" />
    <glyph glyph-name="uring" unicode="&#x16f;" horiz-adv-x="931" vert-adv-y="2457" 
d="M274 851v-497q0 -110 26 -159q23 -43 70 -66q44 -22 95 -22q76 0 128 43q46 38 57 108q6 36 6 96v497h146v-513q0 -121 -30 -185q-42 -92 -137 -140q-76 -38 -170 -38q-164 0 -260 107q-51 57 -66 126q-11 54 -11 130v513h146zM465 1361q77 0 132 -54q54 -54 54 -131
t-54 -132q-55 -54 -131 -54q-78 0 -132 54q-54 56 -54 134q0 75 54 129q55 54 131 54zM466 1261q-36 0 -61 -25t-25 -59q0 -37 25 -62t61 -25q35 0 60 25t25 61t-25 60q-26 25 -60 25z" />
    <glyph glyph-name="Uhungarumlaut" unicode="&#x170;" horiz-adv-x="1301" vert-adv-y="2457" 
d="M317 1365v-836q0 -129 15 -187q26 -102 119 -164q91 -60 199 -60q126 0 225 78q81 65 100 173q9 52 9 160v836h153v-878q0 -142 -34 -227q-56 -137 -195 -217q-119 -68 -258 -68q-163 0 -297 93q-127 89 -167 227q-22 74 -22 192v878h153zM791 1732l-300 -248l-72 57
l242 265zM1133 1732l-300 -248l-73 57l242 265z" />
    <glyph glyph-name="uhungarumlaut" unicode="&#x171;" horiz-adv-x="931" vert-adv-y="2457" 
d="M274 851v-497q0 -110 26 -159q23 -43 70 -66q44 -22 95 -22q76 0 128 43q46 38 57 108q6 36 6 96v497h146v-513q0 -121 -30 -185q-42 -92 -137 -140q-76 -38 -170 -38q-164 0 -260 107q-51 57 -66 126q-11 54 -11 130v513h146zM618 1280l-272 -284l-75 48l216 299z
M891 1280l-272 -284l-75 48l216 299z" />
    <glyph glyph-name="Uogonek" unicode="&#x172;" horiz-adv-x="1301" vert-adv-y="2457" 
d="M1006 -215l-14 -126q-51 -32 -120 -32q-49 0 -89 19q-53 24 -82 72q-24 41 -24 88q0 58 39 110q24 32 91 84q-82 -25 -149 -25q-172 0 -305 93q-126 89 -167 227q-22 74 -22 192v878h153v-836q0 -129 15 -187q26 -102 119 -164q91 -60 199 -60q126 0 225 78
q81 65 100 173q9 52 9 160v836h153v-878q0 -165 -49 -261q-31 -60 -123 -150q-152 -150 -152 -238q0 -46 30 -70q23 -17 52 -17q52 0 111 34z" />
    <glyph glyph-name="uogonek" unicode="&#x173;" horiz-adv-x="931" vert-adv-y="2457" 
d="M755 -228l-19 -112q-51 -28 -108 -28q-55 0 -95 23t-63 64q-22 39 -22 81q0 56 40 112q20 29 76 75q-72 -12 -109 -12q-100 0 -185 53q-92 57 -123 152q-19 57 -19 158v513h146v-497q0 -110 26 -159q23 -42 70 -65q44 -22 95 -22q76 0 128 43q46 37 57 108q6 35 6 95v497
h146v-513q0 -83 -11 -130q-19 -75 -111 -180q-109 -122 -109 -199q0 -42 26 -65q21 -19 53 -19q48 0 105 27z" />
    <glyph glyph-name="Wcircumflex" unicode="&#x174;" horiz-adv-x="1929" vert-adv-y="2457" 
d="M167 1365l363 -1024l428 1094l404 -1094l401 1024h166l-572 -1436l-402 1092l-431 -1093l-524 1437h167zM678 1561l285 243l288 -244l-108 -83l-179 155l-180 -155z" />
    <glyph glyph-name="Ycircumflex" unicode="&#x176;" horiz-adv-x="1054" vert-adv-y="2457" 
d="M447 587l-447 778h176l348 -609l353 609h177l-454 -778v-587h-153v587zM240 1561l285 243l288 -244l-108 -83l-179 155l-180 -155z" />
    <glyph glyph-name="ycircumflex" unicode="&#x177;" horiz-adv-x="920" vert-adv-y="2457" 
d="M396 81l-391 770h169l300 -609l275 609h165l-628 -1330h-165zM176 1077l282 266l285 -266l-105 -80l-180 169l-179 -170z" />
    <glyph glyph-name="Zacute" unicode="&#x179;" horiz-adv-x="1067" vert-adv-y="2457" 
d="M287 142h726v-142h-979l745 1223h-649v142h902zM837 1715l-294 -239l-88 65l244 265z" />
    <glyph glyph-name="zacute" unicode="&#x17a;" horiz-adv-x="920" vert-adv-y="2457" 
d="M299 135h586v-135h-880l615 716h-501v135h792zM759 1275l-276 -279l-91 51l216 296z" />
    <glyph glyph-name="Zdotaccent" unicode="&#x17b;" horiz-adv-x="1067" vert-adv-y="2457" 
d="M287 142h726v-142h-979l745 1223h-649v142h902zM567 1741q45 0 78 -32q32 -32 32 -77q0 -46 -32 -78q-33 -32 -77 -32q-46 0 -78 32q-32 33 -32 79q0 44 32 76t77 32z" />
    <glyph glyph-name="zdotaccent" unicode="&#x17c;" horiz-adv-x="920" vert-adv-y="2457" 
d="M299 135h586v-135h-880l615 716h-501v135h792zM499 1250q44 0 74 -31q31 -30 31 -73q0 -44 -31 -74q-30 -31 -73 -31q-44 0 -74 31q-31 31 -31 75q0 41 31 72q30 31 73 31z" />
    <glyph glyph-name="Zcaron" unicode="&#x17d;" horiz-adv-x="1067" vert-adv-y="2457" 
d="M287 142h726v-142h-979l745 1223h-649v142h902zM854 1721l-285 -244l-288 244l108 83l179 -154l180 154z" />
    <glyph glyph-name="zcaron" unicode="&#x17e;" horiz-adv-x="920" vert-adv-y="2457" 
d="M299 135h586v-135h-880l615 716h-501v135h792zM776 1263l-282 -267l-285 267l105 80l180 -169l179 169z" />
    <glyph glyph-name="uni018F" unicode="&#x18f;" horiz-adv-x="1626" vert-adv-y="2457" 
d="M1368 718q-10 123 -62 226q-71 137 -202 218q-133 83 -290 83q-159 0 -296 -85q-112 -70 -190 -201l-139 60q65 111 149 186q207 183 476 183q185 0 349 -94q167 -95 264 -260q96 -165 96 -353q0 -189 -97 -353q-93 -159 -252 -253q-169 -100 -362 -100q-186 0 -353 95
q-176 100 -270 270q-87 157 -87 343q0 18 1 35h1265zM1359 576h-1093q15 -83 52 -154q73 -140 211 -224q134 -80 284 -80q215 0 378 152q136 126 168 306z" />
    <glyph glyph-name="Ohorn" unicode="&#x1a0;" horiz-adv-x="1593" vert-adv-y="2457" 
d="M1382 1090q125 -235 125 -424q0 -175 -97 -339q-94 -159 -252 -252q-169 -100 -362 -100q-187 0 -353 94q-175 100 -270 271q-87 156 -87 338q0 183 87 340q91 165 256 265q172 105 369 105q278 0 486 -195q5 -4 11 -10l79 264l141 -43zM797 1245q-254 0 -421 -195
q-136 -158 -136 -361q0 -252 174 -416q90 -84 205 -125q87 -30 173 -30q155 0 289 81q132 78 203 209q69 126 69 273q0 239 -170 407q-89 87 -205 126q-91 31 -181 31z" />
    <glyph glyph-name="ohorn" unicode="&#x1a1;" horiz-adv-x="1040" vert-adv-y="2457" 
d="M872 704l62 208l141 -42l-128 -303q22 -70 22 -143q0 -205 -149 -337q-126 -112 -299 -112q-210 0 -344 156q-106 125 -106 291q0 196 140 327q129 121 309 121q176 0 303 -113q25 -23 49 -53zM519 738q-146 0 -232 -110q-67 -86 -67 -201q0 -147 89 -236q84 -84 207 -84
q150 0 238 109q66 83 66 206q0 144 -90 232q-85 84 -211 84z" />
    <glyph glyph-name="Uhorn" unicode="&#x1af;" horiz-adv-x="1301" vert-adv-y="2457" 
d="M317 1365v-836q0 -129 15 -187q26 -102 119 -164q91 -60 199 -60q126 0 225 78q81 65 100 173q9 52 9 160v836h153v-878q0 -142 -34 -227q-56 -137 -195 -217q-119 -68 -258 -68q-163 0 -297 93q-127 89 -167 227q-22 74 -22 192v878h153zM1328 1447l155 -49l-161 -311
l-104 33z" />
    <glyph glyph-name="uhorn" unicode="&#x1b0;" horiz-adv-x="937" vert-adv-y="2457" 
d="M277 851v-497q0 -110 26 -159q23 -43 70 -66q44 -22 95 -22q76 0 128 43q46 38 57 108q6 36 6 96v497h146v-513q0 -121 -30 -185q-42 -92 -137 -140q-76 -38 -170 -38q-164 0 -260 107q-51 57 -66 126q-11 54 -11 130v513h146zM954 905l141 -43l-133 -314l-105 33z" />
    <glyph glyph-name="uni01CD" unicode="&#x1cd;" horiz-adv-x="1242" vert-adv-y="2457" 
d="M914 386h-583l-165 -386h-166l629 1430l613 -1430h-167zM854 528l-228 547l-233 -547h461zM917 1721l-285 -244l-288 244l108 83l180 -154l180 154z" />
    <glyph glyph-name="uni01CE" unicode="&#x1ce;" horiz-adv-x="1050" vert-adv-y="2457" 
d="M775 851h146v-851h-146v118q-120 -143 -293 -143q-190 0 -309 145q-101 122 -101 307q0 215 135 339q115 105 272 105q176 0 296 -141v121zM501 739q-124 0 -206 -95q-74 -86 -74 -213q0 -153 89 -244q78 -80 190 -80q137 0 220 106q65 83 65 213q0 153 -89 235
q-84 78 -195 78zM814 1263l-282 -267l-285 267l105 80l180 -169l180 169z" />
    <glyph glyph-name="uni01D3" unicode="&#x1d3;" horiz-adv-x="1301" vert-adv-y="2457" 
d="M317 1365v-836q0 -129 15 -187q26 -102 119 -164q91 -60 199 -60q126 0 225 78q81 65 100 173q9 52 9 160v836h153v-878q0 -142 -34 -227q-56 -137 -195 -217q-119 -68 -258 -68q-163 0 -297 93q-127 89 -167 227q-22 74 -22 192v878h153zM937 1721l-285 -244l-288 244
l109 83l179 -154l180 154z" />
    <glyph glyph-name="uni01D4" unicode="&#x1d4;" horiz-adv-x="937" vert-adv-y="2457" 
d="M277 851v-497q0 -110 26 -159q23 -43 70 -66q44 -22 95 -22q76 0 128 43q46 38 57 108q6 36 6 96v497h146v-513q0 -121 -30 -185q-42 -92 -137 -140q-76 -38 -170 -38q-164 0 -260 107q-51 57 -66 126q-11 54 -11 130v513h146zM752 1263l-282 -267l-285 267l105 80
l179 -169l180 169z" />
    <glyph glyph-name="Gcaron" unicode="&#x1e6;" horiz-adv-x="1519" vert-adv-y="2457" 
d="M864 685h569q0 -156 -19 -240q-44 -204 -227 -338q-179 -132 -401 -132q-181 0 -342 91q-181 103 -278 286q-81 153 -81 327q0 203 107 375q101 162 271 251q157 83 336 83q236 0 418 -139q68 -52 157 -158l-112 -102q-70 92 -129 139q-146 117 -334 117q-138 0 -261 -66
q-143 -76 -223 -215q-76 -131 -76 -287q0 -243 176 -406q166 -153 373 -153q182 0 328 119q119 98 145 239q5 26 8 67h-405v142zM1094 1721l-285 -244l-288 244l108 83l180 -154l179 154z" />
    <glyph glyph-name="gcaron" unicode="&#x1e7;" horiz-adv-x="1051" vert-adv-y="2457" 
d="M923 851v-832q0 -158 -28 -235q-50 -135 -173 -204q-98 -54 -220 -54q-188 0 -302 113q-105 106 -112 278h145q7 -94 40 -144q34 -55 97 -85t134 -30q147 0 218 105q55 80 55 231v124q-124 -141 -300 -141q-178 0 -299 137q-106 122 -106 309q0 207 129 333
q118 116 283 116q174 0 293 -141v120h146zM500 740q-138 0 -220 -114q-59 -82 -59 -201q0 -144 77 -226q83 -90 200 -90q135 0 220 105q66 80 66 209q0 158 -93 242q-84 75 -191 75zM815 1263l-282 -267l-285 267l105 80l180 -169l179 169z" />
    <glyph glyph-name="uni01F4" unicode="&#x1f4;" horiz-adv-x="1519" vert-adv-y="2457" 
d="M864 685h569q0 -156 -19 -240q-44 -204 -227 -338q-179 -132 -401 -132q-181 0 -342 91q-181 103 -278 286q-81 153 -81 327q0 203 107 375q101 162 271 251q157 83 336 83q236 0 418 -139q68 -52 157 -158l-112 -102q-70 92 -129 139q-146 117 -334 117q-138 0 -261 -66
q-143 -76 -223 -215q-76 -131 -76 -287q0 -243 176 -406q166 -153 373 -153q182 0 328 119q119 98 145 239q5 26 8 67h-405v142zM1070 1715l-294 -239l-88 65l245 265z" />
    <glyph glyph-name="Scommaaccent" unicode="&#x218;" horiz-adv-x="1032" vert-adv-y="2457" 
d="M893 1175l-120 -79q-40 63 -71 90q-65 59 -163 59q-105 0 -168 -68q-58 -62 -58 -143q0 -89 85 -147q50 -33 107 -58l130 -57q167 -74 234 -157q75 -92 75 -220q0 -190 -143 -315q-121 -105 -291 -105q-215 0 -339 165q-55 73 -82 188l148 41q20 -93 55 -141
q36 -50 94 -79q61 -31 130 -31q118 0 198 83q76 78 76 186q0 123 -113 194q-52 33 -242 118q-151 69 -212 146q-64 81 -64 191q0 173 136 273q108 79 246 79q230 0 352 -213zM456 -109l156 -49l-161 -312l-105 34z" />
    <glyph glyph-name="scommaaccent" unicode="&#x219;" horiz-adv-x="695" vert-adv-y="2457" 
d="M597 716l-121 -63q-45 85 -118 85q-47 0 -78 -34q-24 -25 -24 -61q0 -41 36 -69q27 -21 101 -52q115 -48 162 -82q93 -68 93 -187q0 -125 -91 -205q-83 -73 -200 -73q-213 0 -297 217l128 54q25 -51 44 -76q47 -63 127 -63q71 0 110 48q30 38 30 86q0 53 -38 88
q-24 22 -100 55q-117 50 -170 88q-75 55 -75 159q0 111 80 178q73 61 168 61q154 0 233 -154zM294 -109l142 -43l-134 -314l-104 33z" />
    <glyph glyph-name="uni021A" unicode="&#x21a;" horiz-adv-x="842" vert-adv-y="2457" 
d="M497 1223v-1223h-153v1223h-330v142h815v-142h-332zM355 -109l155 -49l-161 -312l-105 34z" />
    <glyph glyph-name="uni021B" unicode="&#x21b;" horiz-adv-x="417" vert-adv-y="2457" 
d="M275 716v-716h-146v716h-89v135h89v305h146v-305h150v-135h-150zM141 -109l141 -43l-133 -314l-105 33z" />
    <glyph glyph-name="uni0259" unicode="&#x259;" horiz-adv-x="986" vert-adv-y="2457" 
d="M85 451h663q-4 87 -37 147q-35 66 -97 103t-137 37q-106 0 -181 -70q-33 -32 -80 -108l-123 69q51 89 104 136q119 105 286 105q204 0 324 -148q95 -118 95 -297q0 -206 -121 -332q-114 -118 -291 -118q-160 0 -271 100q-134 121 -134 376zM238 328q14 -71 50 -118
q75 -102 200 -102q130 0 208 113q32 46 43 107h-501z" />
    <glyph glyph-name="afii57929" unicode="&#x2bc;" horiz-adv-x="536" vert-adv-y="2457" 
d="M286 1434l134 -49l-206 -462l-98 39z" />
    <glyph glyph-name="uni02C9" unicode="&#x2c9;" horiz-adv-x="975" vert-adv-y="2457" 
d="M212 1201h550v-123h-550v123z" />
    <glyph glyph-name="tonos" unicode="&#x384;" horiz-adv-x="302" vert-adv-y="2457" 
d="M206 1009h-111l-27 380h165z" />
    <glyph glyph-name="dieresistonos" unicode="&#x385;" horiz-adv-x="742" vert-adv-y="2457" 
d="M143 1215q43 0 73 -30t30 -72q0 -43 -30 -73q-31 -30 -73 -30t-72 30t-30 74q0 41 30 71t72 30zM600 1215q42 0 72 -30t30 -72q0 -43 -30 -73t-72 -30q-43 0 -73 30q-30 31 -30 74q0 41 30 71q31 30 73 30zM427 1009h-111l-27 380h165z" />
    <glyph glyph-name="Alphatonos" unicode="&#x386;" horiz-adv-x="1269" vert-adv-y="2457" 
d="M928 386h-583l-165 -386h-166l629 1430l613 -1430h-167zM868 528l-228 547l-233 -547h461zM346 1009h-111l-27 380h165z" />
    <glyph glyph-name="uni0387" unicode="&#x387;" horiz-adv-x="461" vert-adv-y="2457" 
d="M231 538q42 0 72 -29q29 -29 29 -72q0 -42 -29 -72q-30 -29 -72 -29t-71 30q-30 30 -30 73q0 40 30 70q29 29 71 29z" />
    <glyph glyph-name="Epsilontonos" unicode="&#x388;" horiz-adv-x="1064" vert-adv-y="2457" 
d="M961 1223h-554v-405h539v-142h-539v-534h554v-142h-707v1365h707v-142zM138 1009h-111l-27 380h165z" />
    <glyph glyph-name="Etatonos" unicode="&#x389;" horiz-adv-x="1435" vert-adv-y="2457" 
d="M407 810h697v555h153v-1365h-153v668h-697v-668h-153v1365h153v-555zM138 1009h-111l-27 380h165z" />
    <glyph glyph-name="Iotatonos" unicode="&#x38a;" horiz-adv-x="584" vert-adv-y="2457" 
d="M407 1365v-1365h-153v1365h153zM138 1009h-111l-27 380h165z" />
    <glyph glyph-name="Omicrontonos" unicode="&#x38c;" horiz-adv-x="1646" vert-adv-y="2457" 
d="M834 1388q189 0 350 -94q168 -97 264 -260q96 -164 96 -353t-97 -354q-93 -158 -252 -252q-169 -100 -368 -100q-181 0 -347 94q-177 101 -271 271q-87 157 -87 350q0 291 225 503q112 106 259 156q116 39 228 39zM834 1245q-254 0 -422 -195q-136 -158 -136 -361
q0 -252 174 -416q90 -84 206 -125q87 -30 173 -30q155 0 289 81q131 78 203 209q69 126 69 273q0 239 -171 407q-88 87 -205 126q-91 31 -180 31zM138 1009h-111l-27 380h165z" />
    <glyph glyph-name="Upsilontonos" unicode="&#x38e;" horiz-adv-x="1269" vert-adv-y="2457" 
d="M649 587l-447 778h176l348 -609l353 609h177l-454 -778v-587h-153v587zM138 1009h-111l-27 380h165z" />
    <glyph glyph-name="Omegatonos" unicode="&#x38f;" horiz-adv-x="1647" vert-adv-y="2457" 
d="M1269 142h276v-142h-556v142q70 22 129 57q139 83 211 223q62 119 62 257q0 246 -174 412q-161 154 -383 154q-159 0 -294 -85q-121 -76 -190 -201q-72 -129 -72 -280q0 -206 131 -360q107 -127 270 -177v-142h-555v142h276q-276 215 -276 542q0 178 87 335
q92 164 255 264q173 105 368 105t368 -105q164 -100 256 -264q87 -157 87 -335q0 -327 -276 -542zM138 1009h-111l-27 380h165z" />
    <glyph glyph-name="iotadieresistonos" unicode="&#x390;" horiz-adv-x="425" vert-adv-y="2457" 
d="M285 851v-851h-146v851h146zM-16 1215q43 0 73 -30t30 -72q0 -43 -30 -73q-31 -30 -73 -30t-72 30t-30 74q0 41 30 71t72 30zM441 1215q42 0 72 -30t30 -72q0 -43 -30 -73t-72 -30q-43 0 -73 30q-30 31 -30 74q0 41 30 71q31 30 73 30zM268 1009h-111l-27 380h165z" />
    <glyph glyph-name="Alpha" unicode="&#x391;" horiz-adv-x="1269" vert-adv-y="2457" 
d="M928 386h-583l-165 -386h-166l629 1430l613 -1430h-167zM868 528l-228 547l-233 -547h461z" />
    <glyph glyph-name="Beta" unicode="&#x392;" horiz-adv-x="1085" vert-adv-y="2457" 
d="M177 0v1365h248q205 0 309 -85q61 -51 95 -131q31 -73 31 -154q0 -119 -63 -200q-24 -31 -72 -66q86 -25 141 -74q117 -103 117 -271q0 -179 -138 -291q-67 -55 -142 -73q-79 -20 -186 -20h-340zM330 763h114q97 0 142 19q68 30 101 99q24 49 24 112q0 116 -72 179
q-59 51 -191 51h-118v-460zM330 142h174q120 0 173 21q80 32 122 105q32 56 32 121q0 84 -54 151q-52 65 -156 83q-53 10 -137 10h-154v-491z" />
    <glyph glyph-name="Gamma" unicode="&#x393;" horiz-adv-x="860" vert-adv-y="2457" 
d="M330 0h-153v1365h655v-142h-502v-1223z" />
    <glyph glyph-name="uni0394" unicode="&#x394;" horiz-adv-x="1269" vert-adv-y="2457" 
d="M14 0l629 1431l613 -1431h-1242zM1030 142l-390 934l-400 -934h790z" />
    <glyph glyph-name="Epsilon" unicode="&#x395;" horiz-adv-x="987" vert-adv-y="2457" 
d="M884 1223h-554v-405h539v-142h-539v-534h554v-142h-707v1365h707v-142z" />
    <glyph glyph-name="Zeta" unicode="&#x396;" horiz-adv-x="1094" vert-adv-y="2457" 
d="M301 142h726v-142h-979l745 1223h-649v142h902z" />
    <glyph glyph-name="Eta" unicode="&#x397;" horiz-adv-x="1359" vert-adv-y="2457" 
d="M330 810h698v555h153v-1365h-153v668h-698v-668h-153v1365h153v-555z" />
    <glyph glyph-name="Theta" unicode="&#x398;" horiz-adv-x="1626" vert-adv-y="2457" 
d="M814 1388q189 0 349 -94q168 -97 264 -260q96 -164 96 -353t-97 -354q-93 -158 -252 -252q-169 -100 -368 -100q-180 0 -347 94q-176 101 -270 271q-87 157 -87 350q0 291 225 503q112 106 258 156q116 39 229 39zM813 1245q-254 0 -421 -195q-136 -158 -136 -361
q0 -252 174 -416q90 -84 205 -125q87 -30 173 -30q155 0 289 81q132 78 203 209q69 126 69 273q0 239 -170 407q-89 87 -205 126q-91 31 -181 31zM1153 754v-142h-676v142h676z" />
    <glyph glyph-name="Iota" unicode="&#x399;" horiz-adv-x="508" vert-adv-y="2457" 
d="M330 1365v-1365h-153v1365h153z" />
    <glyph glyph-name="Kappa" unicode="&#x39a;" horiz-adv-x="1165" vert-adv-y="2457" 
d="M330 779l582 586h204l-640 -636l661 -729h-209l-559 626l-39 -38v-588h-153v1365h153v-586z" />
    <glyph glyph-name="Lambda" unicode="&#x39b;" horiz-adv-x="1269" vert-adv-y="2457" 
d="M1089 0l-449 1076l-460 -1076h-166l629 1431l613 -1431h-167z" />
    <glyph glyph-name="Mu" unicode="&#x39c;" horiz-adv-x="1767" vert-adv-y="2457" 
d="M130 0l226 1443l524 -1154l536 1154l212 -1443h-156l-128 950l-465 -1007l-459 1007l-134 -950h-156z" />
    <glyph glyph-name="Nu" unicode="&#x39d;" horiz-adv-x="1571" vert-adv-y="2457" 
d="M177 0v1422l1064 -1114v1057h153v-1427l-1064 1114v-1052h-153z" />
    <glyph glyph-name="Xi" unicode="&#x39e;" horiz-adv-x="1208" vert-adv-y="2457" 
d="M102 1365h1004v-142h-1004v142zM117 676v142h974v-142h-974zM102 0v142h1004v-142h-1004z" />
    <glyph glyph-name="Omicron" unicode="&#x39f;" horiz-adv-x="1626" vert-adv-y="2457" 
d="M814 1388q189 0 349 -94q168 -97 264 -260q96 -164 96 -353t-97 -354q-93 -158 -252 -252q-169 -100 -368 -100q-180 0 -347 94q-176 101 -270 271q-87 157 -87 350q0 291 225 503q112 106 258 156q116 39 229 39zM813 1245q-254 0 -421 -195q-136 -158 -136 -361
q0 -252 174 -416q90 -84 205 -125q87 -30 173 -30q155 0 289 81q132 78 203 209q69 126 69 273q0 239 -170 407q-89 87 -205 126q-91 31 -181 31z" />
    <glyph glyph-name="Pi" unicode="&#x3a0;" horiz-adv-x="1359" vert-adv-y="2457" 
d="M1181 1365v-1365h-153v1223h-698v-1223h-153v1365h1004z" />
    <glyph glyph-name="Rho" unicode="&#x3a1;" horiz-adv-x="937" vert-adv-y="2457" 
d="M330 598v-598h-153v1365h248q163 0 249 -37q124 -53 183 -175q38 -80 38 -172q0 -111 -54 -204q-104 -179 -378 -179h-133zM330 737h124q144 0 218 67q73 67 73 179q0 116 -75 179q-73 61 -227 61h-113v-486z" />
    <glyph glyph-name="Sigma" unicode="&#x3a3;" horiz-adv-x="1170" vert-adv-y="2457" 
d="M859 686l-468 -544h670v-142h-979l592 683l-557 682h944v-142h-634z" />
    <glyph glyph-name="Tau" unicode="&#x3a4;" horiz-adv-x="870" vert-adv-y="2457" 
d="M510 1223v-1223h-153v1223h-330v142h815v-142h-332z" />
    <glyph glyph-name="Upsilon" unicode="&#x3a5;" horiz-adv-x="1081" vert-adv-y="2457" 
d="M461 587l-447 778h176l348 -609l353 609h177l-454 -778v-587h-153v587z" />
    <glyph glyph-name="Phi" unicode="&#x3a6;" horiz-adv-x="1585" vert-adv-y="2457" 
d="M866 -109h-147v153q-168 2 -314 85q-159 90 -245 245q-78 140 -78 305q0 239 155 418q160 184 406 218q36 5 76 6v154h147v-154q179 -6 328 -95q148 -89 230 -239q79 -143 79 -308q0 -242 -160 -419q-163 -182 -404 -211q-35 -5 -73 -5v-153zM719 187v990
q-140 -4 -253 -74q-106 -66 -167 -177q-63 -114 -63 -246q0 -182 114 -317q144 -169 369 -176zM866 187q133 4 244 71q122 72 185 196q54 104 54 226q0 187 -119 327q-139 164 -364 170v-990z" />
    <glyph glyph-name="Chi" unicode="&#x3a7;" horiz-adv-x="1028" vert-adv-y="2457" 
d="M431 706l-368 659h172l283 -514l289 514h175l-377 -659l396 -706h-171l-314 560l-317 -560h-172z" />
    <glyph glyph-name="Psi" unicode="&#x3a8;" horiz-adv-x="1369" vert-adv-y="2457" 
d="M608 492v873h153v-874q185 16 269 100q59 60 75 154q9 50 9 158v462h153v-503q0 -164 -50 -260q-92 -179 -302 -231q-66 -17 -154 -23v-348h-153v348q-234 17 -354 123q-96 85 -130 199q-22 74 -22 192v503h153v-462q0 -148 23 -212q64 -181 330 -199z" />
    <glyph glyph-name="uni03A9" unicode="&#x3a9;" horiz-adv-x="1626" vert-adv-y="2457" 
d="M1247 142h276v-142h-555v142q69 22 128 57q139 83 211 223q62 119 62 257q0 246 -174 412q-160 154 -382 154q-160 0 -295 -85q-121 -76 -190 -201q-72 -129 -72 -280q0 -206 131 -360q107 -127 270 -177v-142h-555v142h276q-276 220 -276 542q0 178 87 335
q92 164 255 264q173 105 369 105q195 0 368 -105q163 -100 255 -264q87 -157 87 -335q0 -327 -276 -542z" />
    <glyph glyph-name="Iotadieresis" unicode="&#x3aa;" horiz-adv-x="508" vert-adv-y="2457" 
d="M331 1365v-1365h-153v1365h153zM115 1738q44 0 74 -31q31 -30 31 -73q0 -44 -31 -74q-30 -31 -73 -31q-44 0 -74 31q-31 31 -31 75q0 42 31 72q31 31 73 31zM392 1738q43 0 74 -31q31 -30 31 -73q0 -44 -31 -74q-30 -31 -73 -31q-44 0 -74 31q-31 31 -31 75q0 42 31 72
q31 31 73 31z" />
    <glyph glyph-name="Upsilondieresis" unicode="&#x3ab;" horiz-adv-x="1081" vert-adv-y="2457" 
d="M461 587l-447 778h176l348 -609l353 609h177l-454 -778v-587h-153v587zM346 1738q43 0 74 -31q31 -30 31 -73q0 -44 -31 -74q-30 -31 -74 -31q-43 0 -73 31q-31 31 -31 75q0 42 31 72q31 31 73 31zM735 1738q44 0 74 -31q31 -30 31 -73q0 -44 -31 -74q-30 -31 -74 -31
q-43 0 -73 31q-31 31 -31 75q0 42 31 72q31 31 73 31z" />
    <glyph glyph-name="alphatonos" unicode="&#x3ac;" horiz-adv-x="1073" vert-adv-y="2457" 
d="M788 851h146v-851h-146v118q-120 -143 -293 -143q-190 0 -309 145q-101 122 -101 307q0 215 135 339q115 105 272 105q176 0 296 -141v121zM514 739q-124 0 -206 -95q-74 -86 -74 -213q0 -153 89 -244q78 -80 190 -80q137 0 220 106q65 83 65 213q0 153 -89 235
q-84 78 -195 78zM588 1009h-111l-27 380h165z" />
    <glyph glyph-name="epsilontonos" unicode="&#x3ad;" horiz-adv-x="669" vert-adv-y="2457" 
d="M584 15q-94 -41 -199 -41q-143 0 -223 72q-77 71 -77 184q0 166 146 218q-122 52 -122 186q0 109 82 177q71 60 198 60q104 0 195 -37v-132q-79 36 -169 36t-130 -42q-32 -35 -32 -81q0 -85 89 -115q30 -10 121 -10v-100h-19q-211 -2 -211 -148q0 -63 47 -101
q44 -35 116 -35q99 0 188 52v-143zM439 1009h-110l-27 380h165z" />
    <glyph glyph-name="etatonos" unicode="&#x3ae;" horiz-adv-x="960" vert-adv-y="2457" 
d="M139 851h146v-103q40 49 72 72q71 51 172 51q105 0 183 -56q77 -54 98 -159q10 -49 10 -128v-1007h-146v982q0 119 -28 165q-43 71 -150 71q-128 0 -176 -101q-35 -72 -35 -213v-425h-146v851zM535 1009h-111l-27 380h165z" />
    <glyph glyph-name="iotatonos" unicode="&#x3af;" horiz-adv-x="425" vert-adv-y="2457" 
d="M286 851v-851h-146v851h146zM268 1009h-111l-27 380h165z" />
    <glyph glyph-name="upsilondieresistonos" unicode="&#x3b0;" horiz-adv-x="953" vert-adv-y="2457" 
d="M285 851v-497q0 -110 26 -159q23 -43 70 -66q44 -22 95 -22q76 0 128 43q46 38 57 108q6 36 6 96v497h146v-513q0 -121 -30 -185q-42 -92 -137 -140q-76 -38 -170 -38q-164 0 -260 107q-51 57 -66 126q-11 54 -11 130v513h146zM248 1215q43 0 73 -30t30 -72
q0 -43 -30 -73q-31 -30 -73 -30t-72 30t-30 74q0 41 30 71t72 30zM705 1215q42 0 72 -30t30 -72q0 -43 -30 -73t-72 -30q-43 0 -73 30t-30 74q0 41 30 71q31 30 73 30zM532 1009h-111l-27 380h165z" />
    <glyph glyph-name="alpha" unicode="&#x3b1;" horiz-adv-x="1073" vert-adv-y="2457" 
d="M788 851h146v-851h-146v118q-120 -143 -293 -143q-190 0 -309 145q-101 122 -101 307q0 215 135 339q115 105 272 105q176 0 296 -141v121zM514 739q-124 0 -206 -95q-74 -86 -74 -213q0 -153 89 -244q78 -80 190 -80q137 0 220 106q65 83 65 213q0 153 -89 235
q-84 78 -195 78z" />
    <glyph glyph-name="beta" unicode="&#x3b2;" horiz-adv-x="1071" vert-adv-y="2457" 
d="M139 -479v1408q0 188 19 269q31 136 115 208q103 87 261 87q186 0 287 -118q85 -99 85 -239q0 -211 -191 -312q104 -38 158 -96q113 -123 113 -315q0 -129 -61 -238q-52 -93 -143 -144q-97 -54 -221 -54q-157 0 -268 95v-551h-154zM293 194q100 -88 227 -88q146 0 228 93
q77 88 77 229q0 137 -73 226q-82 102 -216 102q-20 0 -51 -1v134q107 4 176 57q89 69 89 189q0 107 -66 170q-63 61 -153 61q-103 0 -167 -75q-44 -52 -58 -135q-13 -71 -13 -212v-750z" />
    <glyph glyph-name="gamma" unicode="&#x3b3;" horiz-adv-x="942" vert-adv-y="2457" 
d="M411 0l-395 851h168l300 -683l276 683h164l-367 -851v-479h-146v479z" />
    <glyph glyph-name="delta" unicode="&#x3b4;" horiz-adv-x="1068" vert-adv-y="2457" 
d="M521 870l-121 116q-113 108 -113 242q0 114 72 184q84 82 268 82h145v-135h-156q-181 0 -181 -139q0 -74 73 -142l313 -294q162 -152 162 -354q0 -211 -149 -343q-126 -112 -299 -112q-210 0 -344 156q-106 125 -106 292q0 166 106 291q127 148 330 156zM533 738
q-146 0 -232 -110q-67 -86 -67 -201q0 -147 89 -236q84 -84 207 -84q150 0 238 109q66 83 66 206q0 144 -90 232q-85 84 -211 84z" />
    <glyph glyph-name="epsilon" unicode="&#x3b5;" horiz-adv-x="669" vert-adv-y="2457" 
d="M584 15q-94 -41 -199 -41q-143 0 -223 72q-77 71 -77 184q0 166 146 218q-122 52 -122 186q0 109 82 177q71 60 198 60q104 0 195 -37v-132q-79 36 -169 36t-130 -42q-32 -35 -32 -81q0 -85 89 -115q30 -10 121 -10v-100h-19q-211 -2 -211 -148q0 -63 47 -101
q44 -35 116 -35q99 0 188 52v-143z" />
    <glyph glyph-name="zeta" unicode="&#x3b6;" horiz-adv-x="911" vert-adv-y="2457" 
d="M609 1359h-421v135h697l-559 -880q-75 -118 -75 -212q0 -78 40 -146q72 -120 260 -120h36q136 0 213 -67q71 -61 71 -160q0 -94 -56 -163q-42 -52 -114 -111l-123 68q75 72 93 94q37 44 37 89q0 111 -143 115l-66 1q-165 4 -272 92q-142 117 -142 304q0 102 45 183
q8 14 37 61z" />
    <glyph glyph-name="eta" unicode="&#x3b7;" horiz-adv-x="960" vert-adv-y="2457" 
d="M139 851h146v-103q40 49 72 72q71 51 172 51q105 0 183 -56q77 -54 98 -159q10 -49 10 -128v-1007h-146v982q0 119 -28 165q-43 71 -150 71q-128 0 -176 -101q-35 -72 -35 -213v-425h-146v851z" />
    <glyph glyph-name="theta" unicode="&#x3b8;" horiz-adv-x="1013" vert-adv-y="2457" 
d="M207 815h598q-10 242 -84 390q-89 178 -215 178q-70 0 -134 -58q-142 -130 -165 -510zM805 673h-597q15 -251 83 -389q87 -176 213 -176q68 0 130 55q81 70 128 227q36 118 43 283zM508 1516q124 0 220 -98q115 -117 169 -287q58 -185 58 -385q0 -298 -110 -510
q-135 -261 -340 -261q-132 0 -230 107q-114 125 -166 301q-52 173 -52 350q0 296 101 505q82 168 201 236q73 42 149 42z" />
    <glyph glyph-name="iota" unicode="&#x3b9;" horiz-adv-x="425" vert-adv-y="2457" 
d="M285 851v-851h-146v851h146z" />
    <glyph glyph-name="kappa" unicode="&#x3ba;" horiz-adv-x="862" vert-adv-y="2457" 
d="M285 495l331 356h171l-373 -388l430 -463h-189l-329 366l-41 -43v-323h-146v851h146v-356z" />
    <glyph glyph-name="lambda" unicode="&#x3bb;" horiz-adv-x="890" vert-adv-y="2457" 
d="M377 770l-247 560h165l578 -1330h-164l-255 609l-271 -609h-169z" />
    <glyph glyph-name="uni03BC" unicode="&#x3bc;" horiz-adv-x="954" vert-adv-y="2457" 
d="M283 12v-491h-146v1330h146v-503q0 -119 28 -165q43 -71 150 -71q128 0 176 101q35 72 35 213v425h146v-851h-146v103q-40 -49 -72 -72q-71 -51 -170 -51q-76 0 -147 32z" />
    <glyph glyph-name="nu" unicode="&#x3bd;" horiz-adv-x="867" vert-adv-y="2457" 
d="M180 851l254 -572l253 572h163l-417 -906l-417 906h164z" />
    <glyph glyph-name="xi" unicode="&#x3be;" horiz-adv-x="995" vert-adv-y="2457" 
d="M518 836q-34 20 -55 35q-87 65 -87 169q0 64 38 122q32 50 113 110l119 87h-349v135h739l-368 -282q-65 -50 -88 -86q-29 -45 -29 -88q0 -55 42 -104t111 -67q49 -12 147 -17l-87 -144q-108 16 -163 16q-156 0 -264 -112q-93 -95 -93 -218q0 -113 71 -186q68 -70 203 -70
h36q137 0 214 -67q71 -61 71 -158q0 -96 -56 -165q-42 -52 -115 -111l-122 68q75 72 93 94q37 44 37 89q0 111 -144 115l-66 1q-153 4 -253 94q-61 55 -96 133q-33 76 -33 157q0 122 79 239q99 147 266 195q42 12 89 16z" />
    <glyph glyph-name="omicron" unicode="&#x3bf;" horiz-adv-x="1068" vert-adv-y="2457" 
d="M534 870q201 0 334 -146q115 -126 115 -301q0 -204 -149 -336q-126 -112 -303 -112q-122 0 -228 62q-108 64 -166 175q-52 98 -52 218q0 186 140 319q128 121 309 121zM533 738q-146 0 -232 -110q-67 -86 -67 -201q0 -147 89 -236q84 -84 207 -84q150 0 238 109
q66 83 66 206q0 144 -90 232q-85 84 -211 84z" />
    <glyph glyph-name="rho" unicode="&#x3c1;" horiz-adv-x="1073" vert-adv-y="2457" 
d="M285 -479h-146v826q0 114 10 171q29 168 137 259q113 95 279 95q204 0 322 -145q101 -123 101 -307q0 -215 -135 -339q-115 -106 -271 -106q-175 0 -297 144v-598zM560 739q-135 0 -218 -106q-67 -85 -67 -213q0 -150 90 -235q84 -78 195 -78q125 0 205 95q74 87 74 213
q0 152 -89 245q-77 79 -190 79z" />
    <glyph glyph-name="uni03C2" unicode="&#x3c2;" horiz-adv-x="950" vert-adv-y="2457" 
d="M802 597q-67 75 -117 102q-71 39 -150 39q-137 0 -224 -102q-77 -91 -77 -219q0 -135 81 -209q80 -72 231 -72h36q136 0 213 -67q71 -62 71 -160q0 -95 -56 -164q-42 -51 -114 -111l-123 69q76 72 94 94q36 44 36 89q0 111 -144 114l-65 2q-164 4 -272 92
q-137 112 -137 309q0 125 56 234q52 104 153 166q107 67 244 67q141 0 264 -81v-192z" />
    <glyph glyph-name="sigma" unicode="&#x3c3;" horiz-adv-x="1096" vert-adv-y="2457" 
d="M667 851h418v-135h-209q107 -129 107 -292q0 -202 -149 -336q-126 -113 -300 -113q-209 0 -343 156q-106 125 -106 292q0 195 140 327q129 120 310 120q67 0 132 -19zM533 738q-146 0 -232 -109q-67 -86 -67 -202q0 -146 90 -235q83 -84 206 -84q150 0 238 109
q66 83 66 206q0 144 -90 232q-85 83 -211 83z" />
    <glyph glyph-name="tau" unicode="&#x3c4;" horiz-adv-x="620" vert-adv-y="2457" 
d="M382 716v-716h-146v716h-220v135h588v-135h-222z" />
    <glyph glyph-name="upsilon" unicode="&#x3c5;" horiz-adv-x="953" vert-adv-y="2457" 
d="M285 851v-497q0 -110 26 -159q23 -43 70 -66q44 -22 95 -22q76 0 128 43q46 38 57 108q6 36 6 96v497h146v-513q0 -121 -30 -185q-42 -92 -137 -140q-76 -38 -170 -38q-164 0 -260 107q-51 57 -66 126q-11 54 -11 130v513h146z" />
    <glyph glyph-name="phi" unicode="&#x3c6;" horiz-adv-x="1177" vert-adv-y="2457" 
d="M509 112v755q57 4 93 4q157 0 272 -63q105 -58 166 -175q52 -98 52 -210q0 -167 -106 -291q-126 -148 -331 -154v-457h-146v458q-114 6 -206 59q-107 63 -166 174q-52 98 -52 212q0 228 198 370l72 -113q-121 -106 -121 -258q0 -121 68 -207q75 -95 207 -104zM655 736
v-626q85 3 148 42q71 43 107 119q33 71 33 151q0 121 -67 207q-81 103 -221 107z" />
    <glyph glyph-name="chi" unicode="&#x3c7;" horiz-adv-x="931" vert-adv-y="2457" 
d="M465 89l-281 -568h-168l363 708l-310 622h164l232 -482l231 482h164l-309 -622l363 -708h-168z" />
    <glyph glyph-name="psi" unicode="&#x3c8;" horiz-adv-x="1208" vert-adv-y="2457" 
d="M532 851h143v-743q134 17 210 108q67 81 67 358v277h146v-281q0 -200 -28 -298q-49 -170 -218 -255q-69 -35 -174 -46v-450h-149v450q-105 11 -174 46q-169 85 -218 255q-28 98 -28 298v281h146v-277q0 -159 20 -251q26 -122 140 -182q46 -24 117 -33v743z" />
    <glyph glyph-name="omega" unicode="&#x3c9;" horiz-adv-x="1126" vert-adv-y="2457" 
d="M631 422q-1 -31 -1 -45q0 -128 20 -188q27 -81 89 -81q61 0 102 64q52 83 52 226q0 225 -109 371q-32 44 -81 82h166q173 -147 173 -441q0 -132 -44 -245q-40 -103 -127 -157q-55 -35 -128 -35q-120 0 -180 97q-59 -97 -179 -97q-133 0 -216 120q-83 118 -83 317
q0 220 99 361q29 43 74 80h166q-65 -51 -106 -119q-84 -140 -84 -334q0 -143 52 -226q40 -64 101 -64q67 0 93 93q16 59 16 176q0 17 -1 45h136z" />
    <glyph glyph-name="iotadieresis" unicode="&#x3ca;" horiz-adv-x="425" vert-adv-y="2457" 
d="M286 851v-851h-146v851h146zM80 1246q41 0 70 -29q29 -28 29 -69t-29 -70t-70 -29t-69 29q-29 29 -29 71q0 40 29 68q29 29 69 29zM346 1246q41 0 69 -29q29 -28 29 -69t-29 -70q-28 -29 -69 -29t-70 29t-29 71q0 40 29 68q29 29 70 29z" />
    <glyph glyph-name="upsilondieresis" unicode="&#x3cb;" horiz-adv-x="953" vert-adv-y="2457" 
d="M285 851v-497q0 -110 26 -159q23 -43 70 -66q44 -22 95 -22q76 0 128 43q46 38 57 108q6 36 6 96v497h146v-513q0 -121 -30 -185q-42 -92 -137 -140q-76 -38 -170 -38q-164 0 -260 107q-51 57 -66 126q-11 54 -11 130v513h146zM298 1249q43 0 73 -30t30 -72
q0 -43 -30 -73q-31 -30 -73 -30t-72 30q-30 31 -30 74q0 41 30 71t72 30zM654 1249q42 0 72 -30t30 -72q0 -43 -30 -73t-72 -30q-43 0 -73 30q-30 31 -30 74q0 41 30 71q31 30 73 30z" />
    <glyph glyph-name="omicrontonos" unicode="&#x3cc;" horiz-adv-x="1068" vert-adv-y="2457" 
d="M534 870q201 0 334 -146q115 -126 115 -301q0 -204 -149 -336q-126 -112 -303 -112q-122 0 -228 62q-108 64 -166 175q-52 98 -52 218q0 186 140 319q128 121 309 121zM533 738q-146 0 -232 -110q-67 -86 -67 -201q0 -147 89 -236q84 -84 207 -84q150 0 238 109
q66 83 66 206q0 144 -90 232q-85 84 -211 84zM589 1009h-110l-27 380h165z" />
    <glyph glyph-name="upsilontonos" unicode="&#x3cd;" horiz-adv-x="953" vert-adv-y="2457" 
d="M285 851v-497q0 -110 26 -159q23 -43 70 -66q44 -22 95 -22q76 0 128 43q46 38 57 108q6 36 6 96v497h146v-513q0 -121 -30 -185q-42 -92 -137 -140q-76 -38 -170 -38q-164 0 -260 107q-51 57 -66 126q-11 54 -11 130v513h146zM532 1009h-111l-27 380h165z" />
    <glyph glyph-name="omegatonos" unicode="&#x3ce;" horiz-adv-x="1126" vert-adv-y="2457" 
d="M631 1009h-111l-27 380h165zM631 422q-1 -31 -1 -45q0 -128 20 -188q27 -81 89 -81q61 0 102 64q52 83 52 226q0 225 -109 371q-32 44 -81 82h166q173 -147 173 -441q0 -132 -44 -245q-40 -103 -127 -157q-55 -35 -128 -35q-120 0 -180 97q-59 -97 -179 -97
q-133 0 -216 120q-83 118 -83 317q0 220 99 361q29 43 74 80h166q-65 -51 -106 -119q-84 -140 -84 -334q0 -143 52 -226q40 -64 101 -64q67 0 93 93q16 59 16 176q0 17 -1 45h136z" />
    <glyph glyph-name="theta1" unicode="&#x3d1;" horiz-adv-x="970" vert-adv-y="2457" 
d="M667 907h-97q-98 0 -153 21q-67 25 -108 85q-48 71 -48 160q0 134 94 208q68 53 177 53q153 0 231 -100q50 -64 50 -155v-137h157v-135h-157v-569q0 -121 -30 -185q-42 -92 -137 -140q-76 -38 -170 -38q-164 0 -260 107q-51 57 -66 126q-11 54 -11 130v513h146v-497
q0 -110 26 -159q23 -43 70 -66q44 -22 95 -22q76 0 128 43q46 38 57 108q6 36 6 96v553zM667 1042v107q0 63 -28 104q-33 47 -103 47q-68 0 -102 -48q-27 -39 -27 -85q0 -72 56 -105q32 -20 114 -20h90z" />
    <glyph glyph-name="phi1" unicode="&#x3d5;" horiz-adv-x="1177" vert-adv-y="2457" 
d="M662 -24v-455h-146v455q-119 7 -213 62q-107 62 -166 174q-52 98 -52 210q0 167 106 292q123 143 325 155v405h146v-405q118 -7 212 -62q108 -62 167 -174q52 -98 52 -211q0 -166 -107 -291q-122 -143 -324 -155zM662 736v-627q82 6 141 42q71 43 107 120q34 70 34 151
q0 119 -67 206q-76 98 -215 108zM516 109v627q-83 -6 -142 -42q-71 -44 -107 -122q-33 -71 -33 -150q0 -121 68 -206q77 -97 214 -107z" />
    <glyph glyph-name="afii10023" unicode="&#x401;" horiz-adv-x="987" vert-adv-y="2457" 
d="M884 1223h-554v-405h539v-142h-539v-534h554v-142h-707v1365h707v-142zM336 1738q43 0 74 -31q31 -30 31 -73q0 -44 -31 -74q-30 -31 -73 -31q-44 0 -74 31q-31 31 -31 75q0 42 31 72q31 31 73 31zM725 1738q44 0 74 -31q31 -30 31 -73q0 -44 -31 -74q-30 -31 -73 -31
q-44 0 -74 31q-31 31 -31 75q0 42 31 72q31 31 73 31z" />
    <glyph glyph-name="afii10051" unicode="&#x402;" horiz-adv-x="1102" vert-adv-y="2457" 
d="M456 751q40 47 72 69q74 50 171 50q105 0 184 -56q78 -56 99 -158q10 -48 10 -129v-389q0 -133 -22 -203q-44 -135 -166 -182q-40 -16 -95 -19v144q73 7 108 70q29 52 29 190v379q0 102 -28 151q-41 70 -147 70q-164 0 -202 -160q-13 -55 -13 -148v-430h-153v1223h-276
v142h815v-142h-386v-472z" />
    <glyph glyph-name="afii10052" unicode="&#x403;" horiz-adv-x="860" vert-adv-y="2457" 
d="M330 0h-153v1365h655v-142h-502v-1223zM745 1715l-294 -239l-88 65l245 265z" />
    <glyph glyph-name="afii10053" unicode="&#x404;" horiz-adv-x="1323" vert-adv-y="2457" 
d="M261 751h620v-142h-621q13 -110 64 -202q77 -139 225 -220q126 -69 260 -69q150 0 290 84q51 30 121 95v-189q-194 -133 -411 -133q-172 0 -327 82q-197 104 -300 298q-80 151 -80 322q0 176 85 334q97 181 273 282q165 95 357 95q149 0 279 -61q52 -24 124 -74v-189
q-87 83 -161 120q-124 61 -251 61q-216 0 -376 -155q-143 -138 -171 -339z" />
    <glyph glyph-name="afii10054" unicode="&#x405;" horiz-adv-x="1059" vert-adv-y="2457" 
d="M906 1175l-120 -79q-40 63 -71 90q-65 59 -163 59q-105 0 -168 -68q-58 -62 -58 -143q0 -89 85 -147q50 -33 107 -58l130 -57q167 -74 234 -157q75 -92 75 -220q0 -190 -143 -315q-121 -105 -291 -105q-215 0 -339 165q-55 73 -82 188l148 41q20 -93 55 -141
q36 -50 94 -79q61 -31 130 -31q118 0 198 83q76 78 76 186q0 123 -113 194q-52 33 -242 118q-151 69 -212 146q-64 81 -64 191q0 173 136 273q108 79 246 79q230 0 352 -213z" />
    <glyph glyph-name="afii10055" unicode="&#x406;" horiz-adv-x="508" vert-adv-y="2457" 
d="M330 1365v-1365h-153v1365h153z" />
    <glyph glyph-name="afii10056" unicode="&#x407;" horiz-adv-x="508" vert-adv-y="2457" 
d="M331 1365v-1365h-153v1365h153zM115 1738q44 0 74 -31q31 -30 31 -73q0 -44 -31 -74q-30 -31 -73 -31q-44 0 -74 31q-31 31 -31 75q0 42 31 72q31 31 73 31zM392 1738q43 0 74 -31q31 -30 31 -73q0 -44 -31 -74q-30 -31 -73 -31q-44 0 -74 31q-31 31 -31 75q0 42 31 72
q31 31 73 31z" />
    <glyph glyph-name="afii10057" unicode="&#x408;" horiz-adv-x="629" vert-adv-y="2457" 
d="M451 1365v-1103q0 -134 -23 -203q-39 -116 -142 -168q-63 -33 -136 -33q-121 0 -246 102l85 117q34 -31 55 -44q48 -32 103 -32q80 0 121 70q30 53 30 191v1103h153z" />
    <glyph glyph-name="afii10058" unicode="&#x409;" horiz-adv-x="1868" vert-adv-y="2457" 
d="M259 1365h901v-598h187q160 0 247 -41q107 -51 166 -149q53 -87 53 -193q0 -179 -137 -291q-63 -50 -138 -71.5t-191 -21.5h-340v1223h-595v-825q0 -134 -23 -203q-39 -116 -142 -168q-64 -33 -135 -33q-19 0 -44 3v144q23 -4 41 -4q78 0 120 70q30 52 30 191v967z
M1160 625v-483h174q120 0 173 21q80 32 122 105q32 56 32 116q0 110 -89 181q-52 42 -113 52q-52 8 -125 8h-174z" />
    <glyph glyph-name="afii10059" unicode="&#x40a;" horiz-adv-x="1888" vert-adv-y="2457" 
d="M1181 767h187q160 0 247 -41q107 -51 166 -149q53 -87 53 -193q0 -179 -138 -291q-67 -55 -142 -73q-79 -20 -186 -20h-340v625h-698v-625h-153v1365h153v-598h698v598h153v-598zM1181 625v-483h174q120 0 173 21q80 32 122 105q32 56 32 116q0 110 -89 181
q-52 42 -113 52q-53 8 -125 8h-174z" />
    <glyph glyph-name="afii10060" unicode="&#x40b;" horiz-adv-x="1102" vert-adv-y="2457" 
d="M846 0v517q0 102 -28 151q-40 70 -147 70q-164 0 -202 -160q-13 -55 -13 -148v-430h-153v1223h-276v142h815v-142h-386v-472q40 47 72 69q74 50 171 50q105 0 184 -56q78 -56 99 -158q10 -48 10 -129v-527h-146z" />
    <glyph glyph-name="afii10061" unicode="&#x40c;" horiz-adv-x="1165" vert-adv-y="2457" 
d="M330 779l582 586h204l-640 -636l661 -729h-209l-559 626l-39 -38v-588h-153v1365h153v-586zM919 1715l-294 -239l-88 65l244 265z" />
    <glyph glyph-name="afii10062" unicode="&#x40e;" horiz-adv-x="1067" vert-adv-y="2457" 
d="M492 605l-437 760h176l348 -609l353 609h177l-796 -1365h-172zM298 1764h131q16 -66 44 -94q41 -42 107 -42q122 0 155 136h130q-11 -102 -63 -165q-82 -101 -221 -101q-145 0 -225 101q-49 60 -58 165z" />
    <glyph glyph-name="afii10145" unicode="&#x40f;" horiz-adv-x="1359" vert-adv-y="2457" 
d="M602 0h-425v1365h153v-1223h698v1223h153v-1365h-426v-201h-153v201z" />
    <glyph glyph-name="afii10017" unicode="&#x410;" horiz-adv-x="1269" vert-adv-y="2457" 
d="M928 386h-583l-165 -386h-166l629 1430l613 -1430h-167zM868 528l-228 547l-233 -547h461z" />
    <glyph glyph-name="afii10018" unicode="&#x411;" horiz-adv-x="1072" vert-adv-y="2457" 
d="M330 1223v-456h187q160 0 246 -41q107 -51 166 -149q53 -87 53 -193q0 -179 -137 -291q-68 -55 -142 -73q-79 -20 -186 -20h-340v1365h655v-142h-502zM330 625v-483h174q119 0 173 21q79 32 121 105q32 56 32 116q0 109 -88 181q-52 42 -114 52q-52 8 -124 8h-174z" />
    <glyph glyph-name="afii10019" unicode="&#x412;" horiz-adv-x="1085" vert-adv-y="2457" 
d="M177 0v1365h248q205 0 309 -85q61 -51 95 -131q31 -73 31 -154q0 -119 -63 -200q-24 -31 -72 -66q86 -25 141 -74q117 -103 117 -271q0 -179 -138 -291q-67 -55 -142 -73q-79 -20 -186 -20h-340zM330 763h114q97 0 142 19q68 30 101 99q24 49 24 112q0 116 -72 179
q-59 51 -191 51h-118v-460zM330 142h174q120 0 173 21q80 32 122 105q32 56 32 121q0 84 -54 151q-52 65 -156 83q-53 10 -137 10h-154v-491z" />
    <glyph glyph-name="afii10020" unicode="&#x413;" horiz-adv-x="860" vert-adv-y="2457" 
d="M330 0h-153v1365h655v-142h-502v-1223z" />
    <glyph glyph-name="afii10021" unicode="&#x414;" horiz-adv-x="1464" vert-adv-y="2457" 
d="M208 0v-202h-153v344h147q53 16 82 65q30 52 30 191v967h901v-1223h126v-344h-153v202h-980zM421 142h641v1081h-595v-825q0 -172 -46 -256z" />
    <glyph glyph-name="afii10022" unicode="&#x415;" horiz-adv-x="987" vert-adv-y="2457" 
d="M884 1223h-554v-405h539v-142h-539v-534h554v-142h-707v1365h707v-142z" />
    <glyph glyph-name="afii10024" unicode="&#x416;" horiz-adv-x="1876" vert-adv-y="2457" 
d="M861 0v559l-66 67l-559 -626h-209l661 729l-640 636h204l609 -616v616h153v-616l609 616h204l-640 -636l661 -729h-209l-559 626l-66 -67v-559h-153z" />
    <glyph glyph-name="afii10025" unicode="&#x417;" horiz-adv-x="1002" vert-adv-y="2457" 
d="M350 655v126q141 -1 217 30q71 28 108 85q35 52 35 115q0 113 -99 178q-85 55 -217 55q-146 0 -271 -66v156q141 54 292 54q201 0 325 -102q123 -102 123 -265q0 -114 -62 -198q-45 -63 -129 -98q79 -30 133 -90q88 -99 88 -246q0 -170 -107 -281q-129 -133 -371 -133
q-158 0 -292 56v160q131 -73 294 -73q108 0 184 38q70 35 107 108q29 57 29 125q0 125 -87 200q-71 61 -201 65q-13 0 -48 1h-51z" />
    <glyph glyph-name="afii10026" unicode="&#x418;" horiz-adv-x="1571" vert-adv-y="2457" 
d="M1394 0h-153v1052l-1064 -1114v1427h153v-1057l1064 1114v-1422z" />
    <glyph glyph-name="afii10027" unicode="&#x419;" horiz-adv-x="1571" vert-adv-y="2457" 
d="M1394 0h-153v1052l-1064 -1114v1427h153v-1057l1064 1114v-1422zM502 1764h130q17 -66 45 -94q41 -42 107 -42q121 0 154 136h131q-12 -102 -63 -165q-82 -101 -221 -101q-145 0 -226 101q-48 60 -57 165z" />
    <glyph glyph-name="afii10028" unicode="&#x41a;" horiz-adv-x="1165" vert-adv-y="2457" 
d="M330 779l582 586h204l-640 -636l661 -729h-209l-559 626l-39 -38v-588h-153v1365h153v-586z" />
    <glyph glyph-name="afii10029" unicode="&#x41b;" horiz-adv-x="1338" vert-adv-y="2457" 
d="M68 141q23 -4 41 -4q78 0 120 70q30 52 30 191v967h901v-1365h-153v1223h-595v-825q0 -134 -23 -203q-39 -116 -142 -168q-64 -33 -135 -33q-19 0 -44 3v144z" />
    <glyph glyph-name="afii10030" unicode="&#x41c;" horiz-adv-x="1767" vert-adv-y="2457" 
d="M130 0l226 1443l524 -1154l536 1154l212 -1443h-156l-128 950l-465 -1007l-459 1007l-134 -950h-156z" />
    <glyph glyph-name="afii10031" unicode="&#x41d;" horiz-adv-x="1359" vert-adv-y="2457" 
d="M330 810h698v555h153v-1365h-153v668h-698v-668h-153v1365h153v-555z" />
    <glyph glyph-name="afii10032" unicode="&#x41e;" horiz-adv-x="1626" vert-adv-y="2457" 
d="M814 1388q189 0 349 -94q168 -97 264 -260q96 -164 96 -353t-97 -354q-93 -158 -252 -252q-169 -100 -368 -100q-180 0 -347 94q-176 101 -270 271q-87 157 -87 350q0 291 225 503q112 106 258 156q116 39 229 39zM813 1245q-254 0 -421 -195q-136 -158 -136 -361
q0 -252 174 -416q90 -84 205 -125q87 -30 173 -30q155 0 289 81q132 78 203 209q69 126 69 273q0 239 -170 407q-89 87 -205 126q-91 31 -181 31z" />
    <glyph glyph-name="afii10033" unicode="&#x41f;" horiz-adv-x="1359" vert-adv-y="2457" 
d="M1181 1365v-1365h-153v1223h-698v-1223h-153v1365h1004z" />
    <glyph glyph-name="afii10034" unicode="&#x420;" horiz-adv-x="937" vert-adv-y="2457" 
d="M330 598v-598h-153v1365h248q163 0 249 -37q124 -53 183 -175q38 -80 38 -172q0 -111 -54 -204q-104 -179 -378 -179h-133zM330 737h124q144 0 218 67q73 67 73 179q0 116 -75 179q-73 61 -227 61h-113v-486z" />
    <glyph glyph-name="afii10035" unicode="&#x421;" horiz-adv-x="1323" vert-adv-y="2457" 
d="M1220 1253v-189q-87 83 -162 120q-123 61 -251 61q-146 0 -275 -78q-140 -84 -214 -230q-62 -122 -62 -261q0 -254 188 -416q163 -142 364 -142q151 0 291 84q51 30 121 95v-189q-194 -133 -411 -133q-172 0 -327 82q-197 104 -300 298q-80 152 -80 322q0 176 85 334
q97 181 273 282q165 95 357 95q148 0 279 -60q52 -25 124 -75z" />
    <glyph glyph-name="afii10036" unicode="&#x422;" horiz-adv-x="870" vert-adv-y="2457" 
d="M510 1223v-1223h-153v1223h-330v142h815v-142h-332z" />
    <glyph glyph-name="afii10037" unicode="&#x423;" horiz-adv-x="1067" vert-adv-y="2457" 
d="M492 605l-437 760h176l348 -609l353 609h177l-796 -1365h-172z" />
    <glyph glyph-name="afii10038" unicode="&#x424;" horiz-adv-x="1585" vert-adv-y="2457" 
d="M866 -109h-147v153q-168 2 -314 85q-159 90 -245 245q-78 140 -78 305q0 239 155 418q160 184 406 218q36 5 76 6v154h147v-154q179 -6 328 -95q148 -89 230 -239q79 -143 79 -308q0 -242 -160 -419q-163 -182 -404 -211q-35 -5 -73 -5v-153zM719 187v990
q-140 -4 -253 -74q-106 -66 -167 -177q-63 -114 -63 -246q0 -182 114 -317q144 -169 369 -176zM866 187q133 4 244 71q122 72 185 196q54 104 54 226q0 187 -119 327q-139 164 -364 170v-990z" />
    <glyph glyph-name="afii10039" unicode="&#x425;" horiz-adv-x="1028" vert-adv-y="2457" 
d="M431 706l-368 659h172l283 -514l289 514h175l-377 -659l396 -706h-171l-314 560l-317 -560h-172z" />
    <glyph glyph-name="afii10040" unicode="&#x426;" horiz-adv-x="1373" vert-adv-y="2457" 
d="M1181 142h123v-343h-153v201h-974v1365h153v-1223h698v1223h153v-1223z" />
    <glyph glyph-name="afii10041" unicode="&#x427;" horiz-adv-x="1224" vert-adv-y="2457" 
d="M893 484q-190 -36 -293 -36q-299 0 -443 190q-59 78 -76 167q-13 69 -13 156v404h153v-363q0 -148 23 -212q71 -201 382 -201q112 0 267 39v737h153v-1365h-153v484z" />
    <glyph glyph-name="afii10042" unicode="&#x428;" horiz-adv-x="1873" vert-adv-y="2457" 
d="M1013 142h529v1223h153v-1365h-1518v1365h153v-1223h530v1223h153v-1223z" />
    <glyph glyph-name="afii10043" unicode="&#x429;" horiz-adv-x="1890" vert-adv-y="2457" 
d="M1013 142h529v1223h153v-1223h126v-343h-153v201h-1491v1365h153v-1223h530v1223h153v-1223z" />
    <glyph glyph-name="afii10044" unicode="&#x42a;" horiz-adv-x="1314" vert-adv-y="2457" 
d="M27 1365h580v-598h187q160 0 247 -41q107 -51 166 -149q53 -87 53 -193q0 -179 -137 -291q-68 -55 -143 -73q-79 -20 -186 -20h-340v1223h-427v142zM607 625v-483h174q120 0 173 21q80 32 122 105q32 56 32 116q0 110 -89 181q-52 42 -113 52q-52 8 -125 8h-174z" />
    <glyph glyph-name="afii10045" unicode="&#x42b;" horiz-adv-x="1532" vert-adv-y="2457" 
d="M330 767h187q160 0 247 -41q107 -51 166 -149q53 -87 53 -193q0 -179 -137 -291q-68 -55 -143 -73q-79 -20 -186 -20h-340v1365h153v-598zM330 625v-483h174q120 0 173 21q80 32 122 105q32 56 32 116q0 110 -89 181q-52 42 -113 52q-53 8 -125 8h-174zM1354 1365v-1365
h-153v1365h153z" />
    <glyph glyph-name="afii10046" unicode="&#x42c;" horiz-adv-x="1038" vert-adv-y="2457" 
d="M330 767h187q160 0 247 -41q107 -51 166 -149q53 -87 53 -193q0 -179 -137 -291q-68 -55 -143 -73q-79 -20 -186 -20h-340v1365h153v-598zM330 625v-483h174q120 0 173 21q80 32 122 105q32 56 32 116q0 110 -89 181q-52 42 -113 52q-53 8 -125 8h-174z" />
    <glyph glyph-name="afii10047" unicode="&#x42d;" horiz-adv-x="1323" vert-adv-y="2457" 
d="M1061 751q-14 100 -57 186q-75 146 -214 230q-130 78 -276 78q-148 0 -283 -79q-55 -32 -129 -102v189q88 61 158 89q116 46 245 46q192 0 357 -95q176 -101 273 -282q85 -158 85 -334q0 -171 -80 -322q-103 -194 -300 -298q-155 -82 -327 -82q-217 0 -411 133v189
q82 -76 151 -112q129 -67 260 -67q201 0 365 142q159 138 184 349h-621v142h620z" />
    <glyph glyph-name="afii10048" unicode="&#x42e;" horiz-adv-x="2159" vert-adv-y="2457" 
d="M330 751h308q18 148 84 268q90 164 255 264q173 105 370 105q185 0 349 -94q167 -95 264 -260q96 -165 96 -353q0 -189 -97 -354q-93 -158 -252 -252q-169 -100 -362 -100q-271 0 -479 185q-201 180 -228 449h-308v-609h-153v1365h153v-614zM1346 1245q-254 0 -421 -195
q-136 -158 -136 -361q0 -252 174 -416q90 -84 205 -125q87 -30 173 -30q155 0 289 80q132 79 203 210q69 126 69 273q0 239 -170 407q-89 87 -205 126q-91 31 -181 31z" />
    <glyph glyph-name="afii10049" unicode="&#x42f;" horiz-adv-x="1056" vert-adv-y="2457" 
d="M522 611q-124 11 -214 83q-128 103 -128 288q0 136 74 236q75 100 213 131q73 16 191 16h221v-1365h-153v599h-39l-412 -599h-186zM726 733v490h-91q-136 0 -206 -44q-99 -63 -99 -197q0 -126 88 -194q74 -55 212 -55h96z" />
    <glyph glyph-name="afii10065" unicode="&#x430;" horiz-adv-x="1073" vert-adv-y="2457" 
d="M788 851h146v-851h-146v118q-120 -143 -293 -143q-190 0 -309 145q-101 122 -101 307q0 215 135 339q115 105 272 105q176 0 296 -141v121zM514 739q-124 0 -206 -95q-74 -86 -74 -213q0 -153 89 -244q78 -80 190 -80q137 0 220 106q65 83 65 213q0 153 -89 235
q-84 78 -195 78z" />
    <glyph glyph-name="afii10066" unicode="&#x431;" horiz-adv-x="1070" vert-adv-y="2457" 
d="M860 1494v-180q-42 -45 -82 -69q-24 -14 -123 -55l-130 -53q-216 -89 -269 -279q-7 -23 -15 -100q124 112 298 112q200 0 332 -146q115 -126 115 -301q0 -204 -149 -336q-126 -112 -299 -112q-179 0 -311 120q-113 103 -136 292q-6 53 -6 129q0 320 83 486
q90 178 331 269l107 41q109 41 161 81q37 30 93 101zM535 738q-145 0 -232 -110q-67 -85 -67 -201q0 -147 90 -236q84 -84 207 -84q149 0 238 109q66 83 66 206q0 144 -90 232q-86 84 -212 84z" />
    <glyph glyph-name="afii10067" unicode="&#x432;" horiz-adv-x="832" vert-adv-y="2457" 
d="M139 0v851h267q131 0 198 -52q81 -64 81 -174q0 -102 -86 -162q55 -16 90 -47q75 -66 75 -173q0 -113 -88 -184q-74 -59 -211 -59h-326zM285 495h129q135 0 135 121q0 110 -132 110h-132v-231zM285 126h166q159 0 159 124q0 129 -171 129h-154v-253z" />
    <glyph glyph-name="afii10068" unicode="&#x433;" horiz-adv-x="563" vert-adv-y="2457" 
d="M285 0h-146v851h410v-135h-264v-716z" />
    <glyph glyph-name="afii10069" unicode="&#x434;" horiz-adv-x="962" vert-adv-y="2457" 
d="M187 0v-147h-146v282h91q31 12 47 49q18 40 18 142v525h606v-716h91v-282h-146v147h-561zM306 135h351v581h-314v-390q0 -132 -37 -191z" />
    <glyph glyph-name="afii10070" unicode="&#x435;" horiz-adv-x="986" vert-adv-y="2457" 
d="M902 395h-663q4 -87 36 -147q36 -67 98 -104t136 -37q108 0 181 71q35 33 81 108l123 -69q-51 -89 -105 -137q-118 -105 -285 -105q-204 0 -324 148q-95 118 -95 297q0 207 121 332q114 118 291 118q160 0 271 -100q134 -120 134 -349v-26zM748 518q-14 71 -49 119
q-75 101 -200 101q-131 0 -209 -113q-31 -46 -42 -107h500z" />
    <glyph glyph-name="afii10072" unicode="&#x436;" horiz-adv-x="1318" vert-adv-y="2457" 
d="M586 0v288l-70 77l-327 -365h-189l429 463l-372 388h171l358 -388v388h146v-388l358 388h171l-372 -388l429 -463h-189l-327 365l-70 -77v-288h-146z" />
    <glyph glyph-name="afii10073" unicode="&#x437;" horiz-adv-x="669" vert-adv-y="2457" 
d="M85 15v143q89 -52 188 -52q83 0 127 45q36 36 36 91q0 82 -66 119q-49 27 -164 29v100q99 0 133 14q77 33 77 111q0 55 -42 90q-39 33 -121 33q-89 0 -168 -36v132q91 37 195 37q127 0 198 -60q82 -68 82 -177q0 -134 -122 -186q146 -52 146 -218q0 -113 -78 -184
q-79 -72 -222 -72q-105 0 -199 41z" />
    <glyph glyph-name="afii10074" unicode="&#x438;" horiz-adv-x="1058" vert-adv-y="2457" 
d="M919 0h-146v567l-634 -607v891h146v-587l634 623v-887z" />
    <glyph glyph-name="afii10075" unicode="&#x439;" horiz-adv-x="1058" vert-adv-y="2457" 
d="M287 1297h126q6 -61 38 -97q40 -46 101 -46q59 0 99 41q35 36 46 102h127q-12 -100 -63 -165q-80 -101 -208 -101q-132 0 -211 101q-52 66 -55 165zM919 0h-146v567l-634 -607v891h146v-587l634 623v-887z" />
    <glyph glyph-name="afii10076" unicode="&#x43a;" horiz-adv-x="862" vert-adv-y="2457" 
d="M285 495l331 356h171l-373 -388l430 -463h-189l-329 366l-41 -43v-323h-146v851h146v-356z" />
    <glyph glyph-name="afii10077" unicode="&#x43b;" horiz-adv-x="936" vert-adv-y="2457" 
d="M68 141q14 -4 25 -4q43 0 67 41q17 31 17 111v562h620v-851h-146v716h-328v-427q0 -98 -17 -148q-29 -85 -105 -123q-47 -24 -99 -24q-15 0 -34 3v144z" />
    <glyph glyph-name="afii10078" unicode="&#x43c;" horiz-adv-x="1211" vert-adv-y="2457" 
d="M606 -39l-285 547l-90 -508h-146l175 928l346 -699l346 699l175 -928h-146l-90 508z" />
    <glyph glyph-name="afii10079" unicode="&#x43d;" horiz-adv-x="964" vert-adv-y="2457" 
d="M679 388h-394v-388h-146v851h146v-328h394v328h146v-851h-146v388z" />
    <glyph glyph-name="afii10080" unicode="&#x43e;" horiz-adv-x="1068" vert-adv-y="2457" 
d="M534 870q201 0 334 -146q115 -126 115 -301q0 -204 -149 -336q-126 -112 -303 -112q-122 0 -228 62q-108 64 -166 175q-52 98 -52 218q0 186 140 319q128 121 309 121zM533 738q-146 0 -232 -110q-67 -86 -67 -201q0 -147 89 -236q84 -84 207 -84q150 0 238 109
q66 83 66 206q0 144 -90 232q-85 84 -211 84z" />
    <glyph glyph-name="afii10081" unicode="&#x43f;" horiz-adv-x="964" vert-adv-y="2457" 
d="M679 716h-394v-716h-146v851h686v-851h-146v716z" />
    <glyph glyph-name="afii10082" unicode="&#x440;" horiz-adv-x="1073" vert-adv-y="2457" 
d="M285 -479h-146v1330h146l-1 -120q122 140 294 140q190 0 309 -145q101 -121 101 -306q0 -215 -135 -339q-115 -106 -271 -106q-175 0 -297 144v-598zM560 739q-135 0 -218 -106q-67 -85 -67 -213q0 -150 90 -235q84 -78 195 -78q125 0 205 95q74 87 74 213q0 152 -89 245
q-77 79 -190 79z" />
    <glyph glyph-name="afii10083" unicode="&#x441;" horiz-adv-x="892" vert-adv-y="2457" 
d="M802 789v-192q-67 75 -117 102q-71 39 -151 39q-136 0 -222 -101q-78 -90 -78 -215q0 -131 84 -223q84 -91 214 -91q100 0 184 59q36 26 91 90v-193q-136 -89 -270 -89q-218 0 -349 159q-103 125 -103 286q0 192 137 327q125 123 316 123q140 0 264 -81z" />
    <glyph glyph-name="afii10084" unicode="&#x442;" horiz-adv-x="620" vert-adv-y="2457" 
d="M382 716v-716h-146v716h-220v135h588v-135h-222z" />
    <glyph glyph-name="afii10085" unicode="&#x443;" horiz-adv-x="942" vert-adv-y="2457" 
d="M407 81l-391 770h169l300 -609l275 609h165l-628 -1330h-165z" />
    <glyph glyph-name="afii10086" unicode="&#x444;" horiz-adv-x="1244" vert-adv-y="2457" 
d="M695 -479h-146v463q-40 -9 -77 -9q-179 0 -292 146q-95 122 -95 305q0 214 127 338q108 106 258 106q39 0 79 -9v413h146v-413q40 9 79 9q177 0 289 -140q96 -120 96 -304q0 -213 -125 -340q-109 -111 -263 -111q-36 0 -76 9v-463zM549 135v578q-40 25 -82 25
q-101 0 -171 -96q-62 -85 -62 -217q0 -146 75 -237q67 -81 158 -81q44 0 82 28zM695 135q38 -28 82 -28q106 0 176 105q57 87 57 213q0 151 -81 239q-67 74 -152 74q-42 0 -82 -25v-578z" />
    <glyph glyph-name="afii10087" unicode="&#x445;" horiz-adv-x="931" vert-adv-y="2457" 
d="M379 454l-310 397h178l222 -290l222 290h181l-312 -397l354 -454h-176l-269 347l-271 -347h-182z" />
    <glyph glyph-name="afii10088" unicode="&#x446;" horiz-adv-x="985" vert-adv-y="2457" 
d="M825 135h92v-336h-153v201h-625v851h146v-716h394v716h146v-716z" />
    <glyph glyph-name="afii10089" unicode="&#x447;" horiz-adv-x="869" vert-adv-y="2457" 
d="M583 287q-6 -2 -24 -7q-73 -22 -153 -22q-187 0 -280 137q-58 85 -58 233v223h146v-199q0 -86 10 -122q35 -138 203 -138q79 0 156 37v422h146v-851h-146v287z" />
    <glyph glyph-name="afii10090" unicode="&#x448;" horiz-adv-x="1337" vert-adv-y="2457" 
d="M1197 0h-1058v851h146v-716h310v716h146v-716h310v716h146v-851z" />
    <glyph glyph-name="afii10091" unicode="&#x449;" horiz-adv-x="1361" vert-adv-y="2457" 
d="M139 0v851h146v-716h310v716h146v-716h310v716h146v-716h96v-336h-153v201h-1001z" />
    <glyph glyph-name="afii10092" unicode="&#x44a;" horiz-adv-x="883" vert-adv-y="2457" 
d="M264 716h-264v135h410v-344h123q130 0 203 -52q93 -68 93 -200q0 -125 -88 -196q-74 -59 -211 -59h-266v716zM410 128h105q160 0 160 124q0 127 -172 127h-93v-251z" />
    <glyph glyph-name="afii10093" unicode="&#x44b;" horiz-adv-x="1157" vert-adv-y="2457" 
d="M285 851v-344h123q130 0 203 -52q93 -68 93 -200q0 -125 -88 -196q-74 -59 -211 -59h-266v851h146zM1018 851v-851h-146v851h146zM285 128h105q160 0 160 124q0 127 -172 127h-93v-251z" />
    <glyph glyph-name="afii10094" unicode="&#x44c;" horiz-adv-x="759" vert-adv-y="2457" 
d="M285 851v-344h123q131 0 203 -52q93 -68 93 -200q0 -125 -88 -196q-74 -59 -211 -59h-266v851h146zM285 128h105q160 0 160 124q0 127 -172 127h-93v-251z" />
    <glyph glyph-name="afii10095" unicode="&#x44d;" horiz-adv-x="892" vert-adv-y="2457" 
d="M649 500q-11 44 -29 79q-85 158 -262 158q-93 0 -171 -51q-38 -25 -97 -90v193q124 81 265 81q217 0 346 -157q106 -129 106 -294q0 -191 -138 -323q-127 -121 -313 -121q-136 0 -271 89v192q63 -73 109 -101q78 -48 167 -48q130 0 213 91q63 69 80 167h-355v135h350z
" />
    <glyph glyph-name="afii10096" unicode="&#x44e;" horiz-adv-x="1480" vert-adv-y="2457" 
d="M285 497h218q11 73 45 136q60 112 167 175q105 62 232 62q201 0 333 -146q115 -126 115 -301q0 -204 -149 -336q-126 -112 -299 -112q-181 0 -310 121q-114 108 -136 266h-216v-362h-146v851h146v-354zM945 738q-146 0 -232 -109q-67 -86 -67 -201q0 -147 90 -236
q84 -84 206 -84q149 0 238 109q66 83 66 206q0 144 -90 232q-85 83 -211 83z" />
    <glyph glyph-name="afii10097" unicode="&#x44f;" horiz-adv-x="787" vert-adv-y="2457" 
d="M325 330q-64 12 -112 54q-79 71 -79 198q0 146 102 217q75 52 222 52h190v-851h-146v313h-36l-206 -313h-178zM502 437v286h-54q-169 0 -169 -138q0 -74 50 -115q41 -33 119 -33h54z" />
    <glyph glyph-name="afii10071" unicode="&#x451;" horiz-adv-x="986" vert-adv-y="2457" 
d="M902 395h-663q4 -87 36 -147q36 -67 98 -104t136 -37q108 0 181 71q35 33 81 108l123 -69q-51 -89 -105 -137q-118 -105 -285 -105q-204 0 -324 148q-95 118 -95 297q0 207 121 332q114 118 291 118q160 0 271 -100q134 -120 134 -349v-26zM748 518q-14 71 -49 119
q-75 101 -200 101q-131 0 -209 -113q-31 -46 -42 -107h500zM336 1249q43 0 73 -30t30 -72q0 -43 -30 -73q-31 -30 -73 -30t-72 30q-30 31 -30 74q0 41 30 71t72 30zM692 1249q42 0 72 -30t30 -72q0 -43 -30 -73t-72 -30t-73 30q-30 31 -30 74q0 41 30 71q31 30 73 30z" />
    <glyph glyph-name="afii10099" unicode="&#x452;" horiz-adv-x="961" vert-adv-y="2457" 
d="M285 1204h391v-128h-391v-325q40 47 72 69q74 50 172 50q105 0 184 -56q78 -56 99 -158q10 -48 10 -129v-1006h-146v996q0 102 -28 151q-41 70 -148 70q-132 0 -181 -101q-34 -70 -34 -212v-425h-146v1076h-123v128h123v290h146v-290z" />
    <glyph glyph-name="afii10100" unicode="&#x453;" horiz-adv-x="601" vert-adv-y="2457" 
d="M285 0h-146v851h410v-135h-264v-716zM587 1275l-276 -279l-91 51l216 296z" />
    <glyph glyph-name="afii10101" unicode="&#x454;" horiz-adv-x="892" vert-adv-y="2457" 
d="M243 500h350v-135h-355q8 -45 25 -82q37 -83 107 -129q71 -47 161 -47q101 0 185 59q36 26 91 90v-192q-135 -89 -271 -89q-217 0 -348 159q-103 124 -103 285q0 192 137 328q124 123 316 123q140 0 264 -81v-193q-67 75 -117 102q-71 39 -151 39q-177 0 -262 -158
q-19 -35 -29 -79z" />
    <glyph glyph-name="afii10102" unicode="&#x455;" horiz-adv-x="717" vert-adv-y="2457" 
d="M608 716l-121 -63q-45 85 -118 85q-47 0 -78 -34q-24 -25 -24 -61q0 -41 36 -69q27 -21 101 -52q115 -48 162 -82q93 -68 93 -187q0 -125 -91 -205q-83 -73 -200 -73q-213 0 -297 217l128 54q25 -51 44 -76q47 -63 127 -63q71 0 110 48q30 38 30 86q0 53 -38 88
q-24 22 -100 55q-117 50 -170 88q-75 55 -75 159q0 111 80 178q73 61 168 61q154 0 233 -154z" />
    <glyph glyph-name="afii10103" unicode="&#x456;" horiz-adv-x="425" vert-adv-y="2457" 
d="M285 851v-851h-146v851h146zM213 1275q43 0 73 -30q31 -31 31 -74q0 -44 -31 -74q-30 -31 -74 -31q-43 0 -73 31q-31 31 -31 75q0 42 31 73q31 30 74 30z" />
    <glyph glyph-name="afii10104" unicode="&#x457;" horiz-adv-x="425" vert-adv-y="2457" 
d="M286 851v-851h-146v851h146zM80 1246q41 0 70 -29q29 -28 29 -69t-29 -70t-70 -29t-69 29q-29 29 -29 71q0 40 29 68q29 29 69 29zM346 1246q41 0 69 -29q29 -28 29 -69t-29 -70q-28 -29 -69 -29t-70 29t-29 71q0 40 29 68q29 29 70 29z" />
    <glyph glyph-name="afii10105" unicode="&#x458;" horiz-adv-x="425" vert-adv-y="2457" 
d="M285 851v-1330h-146v1330h146zM213 1275q43 0 73 -30q31 -31 31 -74q0 -44 -31 -74q-30 -31 -74 -31q-43 0 -73 31q-31 31 -31 75q0 42 31 73q31 30 74 30z" />
    <glyph glyph-name="afii10106" unicode="&#x459;" horiz-adv-x="1270" vert-adv-y="2457" 
d="M651 0v716h-328v-427q0 -98 -17 -148q-29 -85 -105 -123q-47 -24 -99 -24q-15 0 -34 3v144q13 -4 25 -4q43 0 67 41q17 31 17 111v562h620v-344h123q131 0 203 -52q93 -68 93 -200q0 -125 -88 -196q-74 -59 -211 -59h-266zM797 128h105q160 0 160 124q0 127 -172 127h-93
v-251z" />
    <glyph glyph-name="afii10107" unicode="&#x45a;" horiz-adv-x="1298" vert-adv-y="2457" 
d="M679 0v372h-394v-372h-146v851h146v-344h394v344h146v-344h123q130 0 203 -52q93 -68 93 -200q0 -125 -88 -196q-41 -32 -88.5 -45.5t-122.5 -13.5h-266zM825 128h105q160 0 160 124q0 127 -172 127h-93v-251z" />
    <glyph glyph-name="afii10108" unicode="&#x45b;" horiz-adv-x="961" vert-adv-y="2457" 
d="M285 1204h391v-128h-391v-325q40 47 72 69q74 50 172 50q105 0 184 -56q78 -56 99 -158q10 -48 10 -129v-527h-146v517q0 102 -28 151q-41 70 -148 70q-132 0 -181 -101q-34 -70 -34 -212v-425h-146v1076h-123v128h123v290h146v-290z" />
    <glyph glyph-name="afii10109" unicode="&#x45c;" horiz-adv-x="862" vert-adv-y="2457" 
d="M285 495l331 356h171l-373 -388l430 -463h-189l-329 366l-41 -43v-323h-146v851h146v-356zM703 1275l-276 -279l-91 51l216 296z" />
    <glyph glyph-name="afii10110" unicode="&#x45e;" horiz-adv-x="942" vert-adv-y="2457" 
d="M407 81l-391 770h169l300 -609l275 609h165l-628 -1330h-165zM202 1297h127q5 -61 37 -97q40 -46 102 -46q59 0 99 41q35 36 46 102h126q-11 -100 -63 -165q-80 -101 -207 -101q-132 0 -212 101q-52 66 -55 165z" />
    <glyph glyph-name="afii10193" unicode="&#x45f;" horiz-adv-x="964" vert-adv-y="2457" 
d="M558 0v-147h-146v147h-273v851h146v-716h394v716h146v-851h-267z" />
    <glyph glyph-name="afii10050" unicode="&#x490;" horiz-adv-x="860" vert-adv-y="2457" 
d="M330 1223v-1223h-153v1365h502v129h153v-271h-502z" />
    <glyph glyph-name="afii10098" unicode="&#x491;" horiz-adv-x="631" vert-adv-y="2457" 
d="M285 716v-716h-146v851h332v128h146v-263h-332z" />
    <glyph glyph-name="uni0492" unicode="&#x492;" horiz-adv-x="887" vert-adv-y="2457" 
d="M178 676h-38v142h38v547h621v-142h-468v-405h453v-142h-453v-676h-153v676z" />
    <glyph glyph-name="uni0493" unicode="&#x493;" horiz-adv-x="563" vert-adv-y="2457" 
d="M286 362v-362h-146v362h-53v135h53v354h409v-135h-263v-219h194v-135h-194z" />
    <glyph glyph-name="uni0496" unicode="&#x496;" horiz-adv-x="1876" vert-adv-y="2457" 
d="M1710 153h139v-343h-153v190h-56l-560 626l-66 -67v-559h-153v559l-66 67l-559 -626h-209l661 729l-640 636h204l609 -616v616h153v-616l609 616h205l-641 -636z" />
    <glyph glyph-name="uni0497" unicode="&#x497;" horiz-adv-x="1344" vert-adv-y="2457" 
d="M1209 145h136v-336h-153v191h-37l-327 365l-70 -77v-288h-146v288l-70 77l-327 -365h-189l429 463l-372 388h171l358 -388v388h146v-388l358 388h171l-372 -388z" />
    <glyph glyph-name="uni049A" unicode="&#x49a;" horiz-adv-x="1165" vert-adv-y="2457" 
d="M330 779l581 586h205l-640 -636l532 -587h124v-343h-153v201h-51l-559 626l-39 -38v-588h-153v1365h153v-586z" />
    <glyph glyph-name="uni049B" unicode="&#x49b;" horiz-adv-x="862" vert-adv-y="2457" 
d="M285 495l330 356h171l-372 -388l304 -328h92v-336h-153v201l-331 366l-41 -43v-323h-146v851h146v-356z" />
    <glyph glyph-name="uni049C" unicode="&#x49c;" horiz-adv-x="1165" vert-adv-y="2457" 
d="M350 799v329h127v-201l434 438h205l-639 -635l660 -730h-209l-451 505v-260h-127v363l-20 -20v-588h-153v1365h153v-586z" />
    <glyph glyph-name="uni049D" unicode="&#x49d;" horiz-adv-x="862" vert-adv-y="2457" 
d="M311 523v209h107v-94l198 213h171l-369 -392l426 -459h-188l-238 264v-133h-107v219l-26 -28v-322h-146v851h146v-356z" />
    <glyph glyph-name="uni04A2" unicode="&#x4a2;" horiz-adv-x="1373" vert-adv-y="2457" 
d="M330 810h698v555h153v-1223h123v-343h-153v201h-123v668h-698v-668h-153v1365h153v-555z" />
    <glyph glyph-name="uni04A3" unicode="&#x4a3;" horiz-adv-x="985" vert-adv-y="2457" 
d="M679 388h-394v-388h-146v851h146v-328h394v328h146v-716h92v-336h-153v201h-85v388z" />
    <glyph glyph-name="uni04AE" unicode="&#x4ae;" horiz-adv-x="1081" vert-adv-y="2457" 
d="M461 587l-447 778h176l348 -609l353 609h177l-454 -778v-587h-153v587z" />
    <glyph glyph-name="uni04AF" unicode="&#x4af;" horiz-adv-x="942" vert-adv-y="2457" 
d="M411 0l-395 851h168l300 -683l276 683h164l-367 -851v-479h-146v479z" />
    <glyph glyph-name="uni04B0" unicode="&#x4b0;" horiz-adv-x="1081" vert-adv-y="2457" 
d="M614 575h287v-142h-287v-433h-154v433h-287v142h287v12l-446 778h176l348 -609l352 609h177l-453 -778v-12z" />
    <glyph glyph-name="uni04B1" unicode="&#x4b1;" horiz-adv-x="942" vert-adv-y="2457" 
d="M411 -94h-232v135h213l-376 810h169l299 -684l277 684h164l-350 -810h215v-135h-233v-385h-146v385z" />
    <glyph glyph-name="uni04B2" unicode="&#x4b2;" horiz-adv-x="1045" vert-adv-y="2457" 
d="M431 706l-368 659h172l283 -514l289 514h175l-377 -659l316 -564h124v-343h-153v201h-62l-314 560l-317 -560h-172z" />
    <glyph glyph-name="uni04B3" unicode="&#x4b3;" horiz-adv-x="931" vert-adv-y="2457" 
d="M379 454l-310 397h178l222 -290l222 290h181l-312 -397l249 -319h92v-336h-153v201h-10l-269 346l-271 -346h-182z" />
    <glyph glyph-name="uni04B8" unicode="&#x4b8;" horiz-adv-x="1224" vert-adv-y="2457" 
d="M614 448v-331h-127v339q-160 22 -266 114q-97 84 -131 199q-22 74 -22 192v404h153v-363q0 -148 23 -212q53 -149 243 -188v310h127v-323h18q105 0 261 39v737h153v-1365h-153v484q-165 -31 -279 -36z" />
    <glyph glyph-name="uni04B9" unicode="&#x4b9;" horiz-adv-x="869" vert-adv-y="2457" 
d="M446 260v-207h-100v210q-110 17 -180 84q-62 60 -84 143q-14 53 -14 138v223h146v-199q0 -85 10 -122q25 -96 122 -126v250h100v-261l21 2q57 6 116 34v422h146v-851h-146v287q-6 -1 -24 -7q-43 -12 -92 -18z" />
    <glyph glyph-name="uni04BA" unicode="&#x4ba;" horiz-adv-x="1224" vert-adv-y="2457" 
d="M330 881q194 36 293 36q299 0 443 -190q59 -78 76 -167q13 -69 13 -156v-404h-153v363q0 148 -23 212q-71 201 -382 201q-108 0 -267 -39v-737h-153v1365h153v-484z" />
    <glyph glyph-name="uni04BB" unicode="&#x4bb;" horiz-adv-x="961" vert-adv-y="2457" 
d="M139 1494h146v-743q40 47 73 69q73 50 171 50q105 0 184 -56q78 -56 99 -158q10 -48 10 -129v-527h-146v517q0 102 -28 151q-41 70 -148 70q-132 0 -181 -101q-34 -70 -34 -212v-425h-146v1494z" />
    <glyph glyph-name="uni04C0" unicode="&#x4c0;" horiz-adv-x="508" vert-adv-y="2457" 
d="M330 1365v-1365h-153v1365h153z" />
    <glyph glyph-name="uni04CF" unicode="&#x4cf;" horiz-adv-x="508" vert-adv-y="2457" 
d="M330 1365v-1365h-153v1365h153z" />
    <glyph glyph-name="uni04D8" unicode="&#x4d8;" horiz-adv-x="1626" vert-adv-y="2457" 
d="M1368 718q-10 123 -62 226q-71 137 -202 218q-133 83 -290 83q-159 0 -296 -85q-112 -70 -190 -201l-139 60q65 111 149 186q207 183 476 183q185 0 349 -94q167 -95 264 -260q96 -165 96 -353q0 -189 -97 -353q-93 -159 -252 -253q-169 -100 -362 -100q-186 0 -353 95
q-176 100 -270 270q-87 157 -87 343q0 18 1 35h1265zM1359 576h-1093q15 -83 52 -154q73 -140 211 -224q134 -80 284 -80q215 0 378 152q136 126 168 306z" />
    <glyph glyph-name="afii10846" unicode="&#x4d9;" horiz-adv-x="986" vert-adv-y="2457" 
d="M85 451h663q-4 87 -37 147q-35 66 -97 103t-137 37q-106 0 -181 -70q-33 -32 -80 -108l-123 69q51 89 104 136q119 105 286 105q204 0 324 -148q95 -118 95 -297q0 -206 -121 -332q-114 -118 -291 -118q-160 0 -271 100q-134 121 -134 376zM238 328q14 -71 50 -118
q75 -102 200 -102q130 0 208 113q32 46 43 107h-501z" />
    <glyph glyph-name="uni04E8" unicode="&#x4e8;" horiz-adv-x="1626" vert-adv-y="2457" 
d="M261 753h1104q-12 101 -59 191q-73 138 -202 218q-133 83 -290 83q-223 0 -384 -154q-146 -140 -169 -338zM1365 611h-1105q12 -101 58 -189q73 -140 211 -223q134 -80 284 -80q216 0 378 151q150 139 174 341zM812 1392q188 0 348 -94q168 -98 263 -261q96 -164 96 -354
t-96 -355q-93 -158 -252 -253q-169 -100 -367 -100q-180 0 -346 95q-175 100 -269 271q-87 157 -87 351q0 292 224 505q112 106 258 155q116 40 228 40z" />
    <glyph glyph-name="uni04E9" unicode="&#x4e9;" horiz-adv-x="1068" vert-adv-y="2457" 
d="M241 491h587q-8 44 -23 77q-38 82 -116 128q-70 41 -156 41q-127 0 -210 -84q-63 -64 -82 -162zM829 356h-589q9 -48 27 -85q38 -77 107 -120q70 -43 159 -43q125 0 211 84q66 64 85 164zM534 872q201 0 333 -146q115 -127 115 -302q0 -204 -148 -337
q-127 -112 -304 -112q-121 0 -227 62q-108 64 -166 175q-52 99 -52 219q0 187 140 320q128 121 309 121z" />
    <glyph glyph-name="Wacute" unicode="&#x1e82;" horiz-adv-x="535" vert-adv-y="2457" 
d="M82 502h371v-131h-371v131z" />
    <glyph glyph-name="Wdieresis" unicode="&#x1e84;" horiz-adv-x="1929" vert-adv-y="2457" 
d="M167 1365l363 -1024l428 1094l404 -1094l401 1024h166l-572 -1436l-402 1092l-431 -1093l-524 1437h167zM770 1738q44 0 74 -31q31 -30 31 -73q0 -44 -31 -74q-30 -31 -73 -31q-44 0 -74 31q-31 31 -31 75q0 42 31 72q31 31 73 31zM1159 1738q44 0 74 -31q31 -30 31 -73
q0 -44 -31 -74q-30 -31 -73 -31q-44 0 -74 31q-31 31 -31 75q0 42 31 72q31 31 73 31z" />
    <glyph glyph-name="uni1EA0" unicode="&#x1ea0;" horiz-adv-x="1242" vert-adv-y="2457" 
d="M914 386h-583l-165 -386h-166l629 1430l613 -1430h-167zM854 528l-228 547l-233 -547h461zM621 -123q44 0 74 -31q31 -30 31 -73q0 -44 -31 -74q-30 -31 -73 -31q-44 0 -74 31q-31 31 -31 75q0 42 31 72q31 31 73 31z" />
    <glyph glyph-name="uni1EA1" unicode="&#x1ea1;" horiz-adv-x="1051" vert-adv-y="2457" 
d="M774 851h146v-851h-146v118q-120 -143 -293 -143q-190 0 -309 145q-101 122 -101 307q0 215 135 339q115 105 272 105q176 0 296 -141v121zM500 739q-124 0 -206 -95q-74 -86 -74 -213q0 -153 89 -244q78 -80 190 -80q137 0 220 106q65 83 65 213q0 153 -89 235
q-84 78 -195 78zM525 -123q44 0 74 -31q31 -30 31 -73q0 -44 -31 -74q-30 -31 -73 -31q-44 0 -74 31q-31 31 -31 75q0 41 31 72q30 31 73 31z" />
    <glyph glyph-name="uni1EA2" unicode="&#x1ea2;" horiz-adv-x="1242" vert-adv-y="2457" 
d="M914 386h-583l-165 -386h-166l629 1430l613 -1430h-167zM854 528l-228 547l-233 -547h461zM661 1541h-82v125q43 8 64 10q69 10 92 29q21 17 21 50q0 84 -109 84q-39 0 -54 -8q-44 -23 -58 -28l-26 65q102 39 181 39t130 -37q64 -47 64 -122q0 -57 -42 -94
q-41 -36 -118 -36q-24 0 -63 2v-79z" />
    <glyph glyph-name="uni1EA3" unicode="&#x1ea3;" horiz-adv-x="1051" vert-adv-y="2457" 
d="M774 851h146v-851h-146v118q-120 -143 -293 -143q-190 0 -309 145q-101 122 -101 307q0 215 135 339q115 105 272 105q176 0 296 -141v121zM500 739q-124 0 -206 -95q-74 -86 -74 -213q0 -153 89 -244q78 -80 190 -80q137 0 220 106q65 83 65 213q0 153 -89 235
q-84 78 -195 78zM550 1015h-82v125q43 8 64 10q69 10 92 29q21 17 21 50q0 84 -109 84q-38 0 -54 -8q-44 -23 -58 -28l-26 65q103 39 181 39q79 0 130 -37q64 -47 64 -122q0 -57 -42 -94q-41 -36 -118 -36q-24 0 -63 2v-79z" />
    <glyph glyph-name="uni1EA4" unicode="&#x1ea4;" horiz-adv-x="1242" vert-adv-y="2457" 
d="M779 1681l222 242l138 -92l-274 -223l56 -48l-108 -83l-179 155l-180 -155l-106 84l285 243zM914 386h-583l-165 -386h-166l629 1430l613 -1430h-167zM854 528l-228 547l-233 -547h461z" />
    <glyph glyph-name="uni1EA5" unicode="&#x1ea5;" horiz-adv-x="1050" vert-adv-y="2457" 
d="M683 1200l189 260l152 -69l-263 -264l53 -49l-105 -81l-179 169l-180 -169l-103 81l283 266zM775 851h146v-851h-146v118q-120 -143 -293 -143q-190 0 -309 145q-101 122 -101 307q0 215 135 339q115 105 272 105q176 0 296 -141v121zM501 739q-124 0 -206 -95
q-74 -86 -74 -213q0 -153 89 -244q78 -80 190 -80q137 0 220 106q65 83 65 213q0 153 -89 235q-84 78 -195 78z" />
    <glyph glyph-name="uni1EA6" unicode="&#x1ea6;" horiz-adv-x="1242" vert-adv-y="2457" 
d="M412 1615l-275 224l137 92l224 -243l135 116l288 -244l-108 -83l-179 155l-180 -155l-106 84zM914 386h-583l-165 -386h-166l629 1430l613 -1430h-167zM854 528l-228 547l-233 -547h461z" />
    <glyph glyph-name="uni1EA7" unicode="&#x1ea7;" horiz-adv-x="1050" vert-adv-y="2457" 
d="M304 1131l-265 267l151 69l192 -263l148 140l284 -266l-105 -81l-179 169l-180 -169l-102 81zM775 851h146v-851h-146v118q-120 -143 -293 -143q-190 0 -309 145q-101 122 -101 307q0 215 135 339q115 105 272 105q176 0 296 -141v121zM501 739q-124 0 -206 -95
q-74 -86 -74 -213q0 -153 89 -244q78 -80 190 -80q137 0 220 106q65 83 65 213q0 153 -89 235q-84 78 -195 78z" />
    <glyph glyph-name="uni1EA8" unicode="&#x1ea8;" horiz-adv-x="1242" vert-adv-y="2457" 
d="M804 1660v83q43 7 64 10q69 9 92 28q21 18 21 50q0 84 -109 84q-39 0 -54 -8q-44 -22 -58 -27l-26 65q102 38 181 38t130 -37q64 -47 64 -121q0 -57 -42 -94q-41 -36 -118 -36q-26 0 -63 2v-79h-32l67 -58l-108 -83l-179 155l-180 -155l-106 84l285 243zM914 386h-583
l-165 -386h-166l629 1430l613 -1430h-167zM854 528l-228 547l-233 -547h461z" />
    <glyph glyph-name="uni1EA9" unicode="&#x1ea9;" horiz-adv-x="1050" vert-adv-y="2457" 
d="M709 1176v83q43 7 64 10q69 10 92 29q21 17 21 50q0 84 -109 84q-39 0 -55 -8q-43 -23 -57 -28l-26 65q100 39 181 39q79 0 130 -37q64 -47 64 -122q0 -57 -42 -94q-41 -36 -118 -36q-25 0 -63 2v-79h-37l60 -56l-105 -81l-179 169l-180 -169l-103 81l282 266zM775 851
h146v-851h-146v118q-120 -143 -293 -143q-190 0 -309 145q-101 122 -101 307q0 215 135 339q115 105 272 105q176 0 296 -141v121zM501 739q-124 0 -206 -95q-74 -86 -74 -213q0 -153 89 -244q78 -80 190 -80q137 0 220 106q65 83 65 213q0 153 -89 235q-84 78 -195 78z" />
    <glyph glyph-name="uni1EAA" unicode="&#x1eaa;" horiz-adv-x="1242" vert-adv-y="2457" 
d="M914 386h-583l-165 -386h-166l629 1430l613 -1430h-167zM854 528l-228 547l-233 -547h461zM348 1561l285 243l288 -244l-108 -83l-179 155l-180 -155zM407 1794l-88 68q73 146 182 146q46 0 131 -43q80 -40 112 -40q50 0 94 87l88 -66q-71 -148 -188 -148q-48 0 -133 42
q-82 41 -114 41q-31 0 -54 -32q-10 -14 -30 -55z" />
    <glyph glyph-name="uni1EAB" unicode="&#x1eab;" horiz-adv-x="1050" vert-adv-y="2457" 
d="M775 851h146v-851h-146v118q-120 -143 -293 -143q-190 0 -309 145q-101 122 -101 307q0 215 135 339q115 105 272 105q176 0 296 -141v121zM501 739q-124 0 -206 -95q-74 -86 -74 -213q0 -153 89 -244q78 -80 190 -80q137 0 220 106q65 83 65 213q0 153 -89 235
q-84 78 -195 78zM247 1077l283 266l284 -266l-105 -80l-179 169l-180 -170zM320 1359l-85 69q19 52 51 87q54 59 124 59q57 0 128 -44q66 -40 95 -40q52 0 96 87l85 -66q-20 -52 -51 -85q-60 -63 -130 -63q-43 0 -116 42q-76 44 -110 44q-59 0 -87 -90z" />
    <glyph glyph-name="uni1EAC" unicode="&#x1eac;" horiz-adv-x="1242" vert-adv-y="2457" 
d="M914 386h-583l-165 -386h-166l629 1430l613 -1430h-167zM854 528l-228 547l-233 -547h461zM348 1561l285 243l288 -244l-108 -83l-179 155l-180 -155zM621 -123q44 0 74 -31q31 -30 31 -73q0 -44 -31 -74q-30 -31 -73 -31q-44 0 -74 31q-31 31 -31 75q0 42 31 72
q31 31 73 31z" />
    <glyph glyph-name="uni1EAD" unicode="&#x1ead;" horiz-adv-x="1050" vert-adv-y="2457" 
d="M775 851h146v-851h-146v118q-120 -143 -293 -143q-190 0 -309 145q-101 122 -101 307q0 215 135 339q115 105 272 105q176 0 296 -141v121zM501 739q-124 0 -206 -95q-74 -86 -74 -213q0 -153 89 -244q78 -80 190 -80q137 0 220 106q65 83 65 213q0 153 -89 235
q-84 78 -195 78zM247 1077l283 266l284 -266l-105 -80l-179 169l-180 -170zM524 -123q44 0 74 -31q31 -30 31 -73q0 -44 -31 -74q-30 -31 -73 -31q-44 0 -74 31q-31 31 -31 75q0 42 31 72q31 31 73 31z" />
    <glyph glyph-name="uni1EAE" unicode="&#x1eae;" horiz-adv-x="1242" vert-adv-y="2457" 
d="M914 386h-583l-165 -386h-166l629 1430l613 -1430h-167zM854 528l-228 547l-233 -547h461zM344 1764h131q17 -66 44 -94q41 -42 108 -42q121 0 154 136h131q-12 -102 -64 -165q-82 -101 -220 -101q-146 0 -226 101q-48 60 -58 165zM925 1951l-294 -239l-88 65l244 265z
" />
    <glyph glyph-name="uni1EAF" unicode="&#x1eaf;" horiz-adv-x="1050" vert-adv-y="2457" 
d="M775 851h146v-851h-146v118q-120 -143 -293 -143q-190 0 -309 145q-101 122 -101 307q0 215 135 339q115 105 272 105q176 0 296 -141v121zM501 739q-124 0 -206 -95q-74 -86 -74 -213q0 -153 89 -244q78 -80 190 -80q137 0 220 106q65 83 65 213q0 153 -89 235
q-84 78 -195 78zM262 1297h127q5 -61 37 -97q40 -46 102 -46q59 0 99 41q35 36 46 102h126q-11 -100 -63 -165q-80 -101 -207 -101q-132 0 -212 101q-52 66 -55 165zM823 1503l-276 -278l-91 50l216 297z" />
    <glyph glyph-name="uni1EB0" unicode="&#x1eb0;" horiz-adv-x="1242" vert-adv-y="2457" 
d="M914 386h-583l-165 -386h-166l629 1430l613 -1430h-167zM854 528l-228 547l-233 -547h461zM344 1764h131q17 -66 44 -94q41 -42 108 -42q121 0 154 136h131q-12 -102 -64 -165q-82 -101 -220 -101q-146 0 -226 101q-48 60 -58 165zM317 1931l138 91l244 -265l-88 -65z
" />
    <glyph glyph-name="uni1EB1" unicode="&#x1eb1;" horiz-adv-x="1050" vert-adv-y="2457" 
d="M775 851h146v-851h-146v118q-120 -143 -293 -143q-190 0 -309 145q-101 122 -101 307q0 215 135 339q115 105 272 105q176 0 296 -141v121zM501 739q-124 0 -206 -95q-74 -86 -74 -213q0 -153 89 -244q78 -80 190 -80q137 0 220 106q65 83 65 213q0 153 -89 235
q-84 78 -195 78zM262 1297h127q5 -61 37 -97q40 -46 102 -46q59 0 99 41q35 36 46 102h126q-11 -100 -63 -165q-80 -101 -207 -101q-132 0 -212 101q-52 66 -55 165zM246 1495l151 69l216 -297l-92 -50z" />
    <glyph glyph-name="uni1EB2" unicode="&#x1eb2;" horiz-adv-x="1242" vert-adv-y="2457" 
d="M914 386h-583l-165 -386h-166l629 1430l613 -1430h-167zM854 528l-228 547l-233 -547h461zM344 1764h131q17 -66 44 -94q41 -42 108 -42q121 0 154 136h131q-12 -102 -64 -165q-82 -101 -220 -101q-146 0 -226 101q-48 60 -58 165zM661 1709h-82v125q43 8 64 10
q69 10 92 29q21 17 21 50q0 84 -109 84q-39 0 -54 -8q-44 -23 -58 -28l-26 65q103 39 181 39q79 0 130 -37q64 -47 64 -122q0 -57 -42 -94q-41 -36 -118 -36q-24 0 -63 2v-79z" />
    <glyph glyph-name="uni1EB3" unicode="&#x1eb3;" horiz-adv-x="1050" vert-adv-y="2457" 
d="M775 851h146v-851h-146v118q-120 -143 -293 -143q-190 0 -309 145q-101 122 -101 307q0 215 135 339q115 105 272 105q176 0 296 -141v121zM501 739q-124 0 -206 -95q-74 -86 -74 -213q0 -153 89 -244q78 -80 190 -80q137 0 220 106q65 83 65 213q0 153 -89 235
q-84 78 -195 78zM262 1297h127q5 -61 37 -97q40 -46 102 -46q59 0 99 41q35 36 46 102h126q-11 -100 -63 -165q-80 -101 -207 -101q-132 0 -212 101q-52 66 -55 165zM549 1241h-82v125q42 8 64 10q69 10 92 29q21 17 21 50q0 84 -109 84q-39 0 -54 -8q-44 -23 -58 -28
l-26 65q101 39 181 39q79 0 130 -37q64 -47 64 -122q0 -57 -42 -94q-41 -36 -118 -36q-24 0 -63 2v-79z" />
    <glyph glyph-name="uni1EB4" unicode="&#x1eb4;" horiz-adv-x="1242" vert-adv-y="2457" 
d="M914 386h-583l-165 -386h-166l629 1430l613 -1430h-167zM854 528l-228 547l-233 -547h461zM344 1764h131q17 -66 44 -94q41 -42 108 -42q121 0 154 136h131q-12 -102 -64 -165q-82 -101 -220 -101q-146 0 -226 101q-48 60 -58 165zM407 1822l-88 68q73 146 182 146
q46 0 131 -43q80 -40 112 -40q50 0 94 87l88 -67q-72 -147 -188 -147q-48 0 -133 42q-82 41 -114 41q-31 0 -54 -32q-10 -14 -30 -55z" />
    <glyph glyph-name="uni1EB5" unicode="&#x1eb5;" horiz-adv-x="1050" vert-adv-y="2457" 
d="M775 851h146v-851h-146v118q-120 -143 -293 -143q-190 0 -309 145q-101 122 -101 307q0 215 135 339q115 105 272 105q176 0 296 -141v121zM501 739q-124 0 -206 -95q-74 -86 -74 -213q0 -153 89 -244q78 -80 190 -80q137 0 220 106q65 83 65 213q0 153 -89 235
q-84 78 -195 78zM262 1297h127q5 -61 37 -97q40 -46 102 -46q59 0 99 41q35 36 46 102h126q-11 -100 -63 -165q-80 -101 -207 -101q-132 0 -212 101q-52 66 -55 165zM320 1356l-85 68q19 53 51 88q54 59 124 59q57 0 128 -44q66 -40 95 -40q52 0 96 87l85 -66
q-20 -52 -51 -85q-60 -63 -130 -63q-43 0 -116 42q-76 44 -110 44q-59 0 -87 -90z" />
    <glyph glyph-name="uni1EB6" unicode="&#x1eb6;" horiz-adv-x="1242" vert-adv-y="2457" 
d="M914 386h-583l-165 -386h-166l629 1430l613 -1430h-167zM854 528l-228 547l-233 -547h461zM344 1764h131q17 -66 44 -94q41 -42 108 -42q121 0 154 136h131q-12 -102 -64 -165q-82 -101 -220 -101q-146 0 -226 101q-48 60 -58 165zM621 -123q44 0 74 -31q31 -30 31 -73
q0 -44 -31 -74q-30 -31 -73 -31q-44 0 -74 31q-31 31 -31 75q0 42 31 72q31 31 73 31z" />
    <glyph glyph-name="uni1EB7" unicode="&#x1eb7;" horiz-adv-x="1050" vert-adv-y="2457" 
d="M775 851h146v-851h-146v118q-120 -143 -293 -143q-190 0 -309 145q-101 122 -101 307q0 215 135 339q115 105 272 105q176 0 296 -141v121zM501 739q-124 0 -206 -95q-74 -86 -74 -213q0 -153 89 -244q78 -80 190 -80q137 0 220 106q65 83 65 213q0 153 -89 235
q-84 78 -195 78zM262 1297h127q5 -61 37 -97q40 -46 102 -46q59 0 99 41q35 36 46 102h126q-11 -100 -63 -165q-80 -101 -207 -101q-132 0 -212 101q-52 66 -55 165zM524 -123q44 0 74 -31q31 -30 31 -73q0 -44 -31 -74q-30 -31 -73 -31q-44 0 -74 31q-31 31 -31 75
q0 42 31 72q31 31 73 31z" />
    <glyph glyph-name="uni1EB8" unicode="&#x1eb8;" horiz-adv-x="960" vert-adv-y="2457" 
d="M871 1223h-554v-405h539v-142h-539v-534h554v-142h-707v1365h707v-142zM480 -123q44 0 74 -31q31 -30 31 -73q0 -44 -31 -74q-30 -31 -73 -31q-44 0 -74 31q-31 31 -31 75q0 42 31 72q31 31 73 31z" />
    <glyph glyph-name="uni1EB9" unicode="&#x1eb9;" horiz-adv-x="959" vert-adv-y="2457" 
d="M888 395h-663q4 -87 36 -147q36 -67 98 -104t136 -37q108 0 181 71q35 33 81 108l123 -69q-51 -89 -105 -137q-118 -105 -285 -105q-204 0 -324 148q-95 118 -95 297q0 207 121 332q114 118 291 118q160 0 271 -100q134 -120 134 -349v-26zM734 518q-14 71 -49 119
q-75 101 -200 101q-131 0 -209 -113q-31 -46 -42 -107h500zM479 -123q44 0 74 -31q31 -30 31 -73q0 -44 -31 -74q-30 -31 -73 -31q-44 0 -74 31q-31 31 -31 75q0 42 31 72q31 31 73 31z" />
    <glyph glyph-name="uni1EBA" unicode="&#x1eba;" horiz-adv-x="960" vert-adv-y="2457" 
d="M871 1223h-554v-405h539v-142h-539v-534h554v-142h-707v1365h707v-142zM570 1541h-82v125q42 8 64 10q69 10 92 29q21 17 21 50q0 84 -109 84q-39 0 -54 -8q-44 -23 -58 -28l-26 65q102 39 181 39t130 -37q64 -47 64 -122q0 -57 -42 -94q-41 -36 -118 -36q-24 0 -63 2
v-79z" />
    <glyph glyph-name="uni1EBB" unicode="&#x1ebb;" horiz-adv-x="959" vert-adv-y="2457" 
d="M888 395h-663q4 -87 36 -147q36 -67 98 -104t136 -37q108 0 181 71q35 33 81 108l123 -69q-51 -89 -105 -137q-118 -105 -285 -105q-204 0 -324 148q-95 118 -95 297q0 207 121 332q114 118 291 118q160 0 271 -100q134 -120 134 -349v-26zM734 518q-14 71 -49 119
q-75 101 -200 101q-131 0 -209 -113q-31 -46 -42 -107h500zM503 1015h-82v125q43 8 64 10q69 10 92 29q21 17 21 50q0 84 -109 84q-39 0 -55 -8q-43 -23 -57 -28l-26 65q102 39 181 39t130 -37q64 -47 64 -122q0 -57 -42 -94q-41 -36 -118 -36q-24 0 -63 2v-79z" />
    <glyph glyph-name="uni1EBC" unicode="&#x1ebc;" horiz-adv-x="960" vert-adv-y="2457" 
d="M871 1223h-554v-405h539v-142h-539v-534h554v-142h-707v1365h707v-142zM266 1528l-88 69q73 146 182 146q47 0 131 -43q80 -41 112 -41q50 0 94 87l88 -66q-71 -148 -188 -148q-49 0 -133 43q-82 41 -114 41q-31 0 -54 -32q-10 -14 -30 -56z" />
    <glyph glyph-name="uni1EBD" unicode="&#x1ebd;" horiz-adv-x="959" vert-adv-y="2457" 
d="M888 395h-663q4 -87 36 -147q36 -67 98 -104t136 -37q108 0 181 71q35 33 81 108l123 -69q-51 -89 -105 -137q-118 -105 -285 -105q-204 0 -324 148q-95 118 -95 297q0 207 121 332q114 118 291 118q160 0 271 -100q134 -120 134 -349v-26zM734 518q-14 71 -49 119
q-75 101 -200 101q-131 0 -209 -113q-31 -46 -42 -107h500zM275 1037l-85 69q19 52 51 87q54 59 124 59q57 0 128 -44q66 -40 95 -40q52 0 96 87l85 -66q-20 -52 -52 -85q-59 -63 -129 -63q-43 0 -116 42q-76 44 -111 44q-58 0 -86 -90z" />
    <glyph glyph-name="uni1EBE" unicode="&#x1ebe;" horiz-adv-x="960" vert-adv-y="2457" 
d="M666 1678l226 245l137 -92l-277 -226l52 -45l-108 -83l-180 155l-179 -155l-106 84l285 243zM871 1223h-554v-405h539v-142h-539v-534h554v-142h-707v1365h707v-142z" />
    <glyph glyph-name="uni1EBF" unicode="&#x1ebf;" horiz-adv-x="961" vert-adv-y="2457" 
d="M653 1201l187 257l151 -69l-260 -262l53 -49l-105 -81l-179 169l-180 -169l-102 81l282 266zM889 395h-663q4 -87 36 -147q36 -67 98 -104t136 -37q108 0 181 71q35 33 81 108l123 -69q-51 -89 -105 -137q-118 -105 -285 -105q-204 0 -324 148q-95 118 -95 297
q0 207 121 332q114 118 291 118q160 0 271 -100q134 -120 134 -346v-29zM735 518q-14 71 -49 119q-75 101 -200 101q-131 0 -209 -113q-31 -46 -42 -107h500z" />
    <glyph glyph-name="uni1EC0" unicode="&#x1ec0;" horiz-adv-x="960" vert-adv-y="2457" 
d="M286 1608l-271 221l137 92l221 -239l143 122l288 -244l-108 -83l-180 155l-179 -155l-106 84zM871 1223h-554v-405h539v-142h-539v-534h554v-142h-707v1365h707v-142z" />
    <glyph glyph-name="uni1EC1" unicode="&#x1ec1;" horiz-adv-x="961" vert-adv-y="2457" 
d="M276 1132l-261 263l151 69l188 -258l146 138l284 -266l-105 -81l-179 169l-180 -169l-102 81zM889 395h-663q4 -87 36 -147q36 -67 98 -104t136 -37q108 0 181 71q35 33 81 108l123 -69q-51 -89 -105 -137q-118 -105 -285 -105q-204 0 -324 148q-95 118 -95 297
q0 206 121 332q114 118 291 118q160 0 271 -100q134 -120 134 -346v-29zM735 518q-14 71 -49 119q-75 101 -200 101q-131 0 -208 -113q-32 -46 -43 -107h500z" />
    <glyph glyph-name="uni1EC2" unicode="&#x1ec2;" horiz-adv-x="960" vert-adv-y="2457" 
d="M705 1644v99q43 7 64 10q69 9 92 28q21 18 21 50q0 84 -109 84q-39 0 -55 -8q-43 -22 -57 -27l-26 65q102 38 181 38t130 -37q64 -47 64 -121q0 -57 -42 -94q-41 -36 -118 -36q-26 0 -63 2v-79h-51l68 -58l-109 -83l-179 155l-180 -155l-105 84l285 243zM871 1223h-554
v-405h539v-142h-539v-534h554v-142h-707v1365h707v-142z" />
    <glyph glyph-name="uni1EC3" unicode="&#x1ec3;" horiz-adv-x="961" vert-adv-y="2457" 
d="M689 1167v80q42 7 64 10q69 10 92 29q21 17 21 50q0 84 -109 84q-39 0 -54 -8q-44 -23 -58 -28l-26 65q101 39 181 39q79 0 130 -37q64 -47 64 -122q0 -57 -42 -94q-41 -36 -118 -36q-25 0 -63 2v-79h-34l47 -44l-105 -81l-179 169l-180 -169l-103 81l282 266zM889 395
h-663q4 -87 36 -147q36 -67 98 -104t136 -37q108 0 181 71q35 33 81 108l123 -69q-51 -89 -105 -137q-118 -105 -285 -105q-204 0 -324 148q-95 118 -95 297q0 207 121 332q114 118 291 118q160 0 271 -100q134 -120 134 -346v-29zM735 518q-14 71 -49 119q-75 101 -200 101
q-131 0 -209 -113q-31 -46 -42 -107h500z" />
    <glyph glyph-name="uni1EC4" unicode="&#x1ec4;" horiz-adv-x="960" vert-adv-y="2457" 
d="M871 1223h-554v-405h539v-142h-539v-534h554v-142h-707v1365h707v-142zM231 1561l285 243l288 -244l-108 -83l-180 155l-179 -155zM300 1819l-87 68q72 146 181 146q47 0 131 -43q80 -40 112 -40q51 0 94 87l88 -67q-71 -147 -187 -147q-49 0 -133 42q-83 41 -115 41
q-31 0 -54 -32q-9 -14 -30 -55z" />
    <glyph glyph-name="uni1EC5" unicode="&#x1ec5;" horiz-adv-x="961" vert-adv-y="2457" 
d="M889 395h-663q4 -87 36 -147q36 -67 98 -104t136 -37q108 0 181 71q35 33 81 108l123 -69q-51 -89 -105 -137q-118 -105 -285 -105q-204 0 -324 148q-95 118 -95 297q0 207 121 332q114 118 291 118q160 0 271 -100q134 -120 134 -349v-26zM735 518q-14 71 -49 119
q-75 101 -200 101q-131 0 -209 -113q-31 -46 -42 -107h500zM218 1077l282 266l284 -266l-105 -80l-179 169l-180 -170zM309 1329l-85 68q19 52 51 88q54 58 124 58q57 0 128 -43q66 -40 95 -40q53 0 96 87l85 -66q-20 -52 -51 -85q-60 -63 -130 -63q-43 0 -116 42
q-76 43 -110 43q-59 0 -87 -89z" />
    <glyph glyph-name="uni1EC6" unicode="&#x1ec6;" horiz-adv-x="960" vert-adv-y="2457" 
d="M871 1223h-554v-405h539v-142h-539v-534h554v-142h-707v1365h707v-142zM231 1561l285 243l288 -244l-108 -83l-180 155l-179 -155zM480 -123q44 0 74 -31q31 -30 31 -73q0 -44 -31 -74q-30 -31 -73 -31q-44 0 -74 31q-31 31 -31 75q0 42 31 72q31 31 73 31z" />
    <glyph glyph-name="uni1EC7" unicode="&#x1ec7;" horiz-adv-x="961" vert-adv-y="2457" 
d="M889 395h-663q4 -87 36 -147q36 -67 98 -104t136 -37q108 0 181 71q35 33 81 108l123 -69q-51 -89 -105 -137q-118 -105 -285 -105q-204 0 -324 148q-95 118 -95 297q0 207 121 332q114 118 291 118q160 0 271 -100q134 -120 134 -349v-26zM735 518q-14 71 -49 119
q-75 101 -200 101q-131 0 -209 -113q-31 -46 -42 -107h500zM218 1077l282 266l284 -266l-105 -80l-179 169l-180 -170zM480 -123q44 0 74 -31q31 -30 31 -73q0 -44 -31 -74q-30 -31 -73 -31q-44 0 -74 31q-31 31 -31 75q0 42 31 72q31 31 73 31z" />
    <glyph glyph-name="uni1EC8" unicode="&#x1ec8;" horiz-adv-x="481" vert-adv-y="2457" 
d="M317 1365v-1365h-153v1365h153zM282 1541h-82v125q42 8 64 10q69 10 92 29q21 17 21 50q0 84 -109 84q-39 0 -55 -8q-43 -23 -57 -28l-26 65q102 39 180 39q80 0 131 -37q64 -47 64 -122q0 -57 -42 -94q-41 -36 -118 -36q-24 0 -63 2v-79z" />
    <glyph glyph-name="uni1EC9" unicode="&#x1ec9;" horiz-adv-x="409" vert-adv-y="2457" 
d="M277 851v-851h-146v851h146zM247 982h-82v125q42 7 64 10q69 9 92 28q21 18 21 50q0 84 -109 84q-39 0 -55 -8q-43 -22 -57 -28l-26 66q101 38 180 38q80 0 131 -37q64 -47 64 -121q0 -57 -42 -94q-41 -36 -118 -36q-25 0 -63 2v-79z" />
    <glyph glyph-name="uni1ECA" unicode="&#x1eca;" horiz-adv-x="481" vert-adv-y="2457" 
d="M317 1365v-1365h-153v1365h153zM240 -123q44 0 74 -31q31 -30 31 -73q0 -44 -31 -74q-30 -31 -73 -31q-44 0 -74 31q-31 31 -31 75q0 42 31 72q31 31 73 31z" />
    <glyph glyph-name="uni1ECB" unicode="&#x1ecb;" horiz-adv-x="409" vert-adv-y="2457" 
d="M277 851v-851h-146v851h146zM205 1275q43 0 73 -30q31 -31 31 -74q0 -44 -31 -74q-30 -31 -74 -31q-43 0 -73 31q-31 31 -31 75q0 42 31 73q31 30 74 30zM204 -123q44 0 74 -31q31 -30 31 -73q0 -44 -31 -74q-30 -31 -73 -31q-44 0 -74 31q-31 31 -31 75q0 42 31 72
q31 31 73 31z" />
    <glyph glyph-name="uni1ECC" unicode="&#x1ecc;" horiz-adv-x="1593" vert-adv-y="2457" 
d="M798 1388q189 0 349 -94q168 -97 264 -260q96 -164 96 -353t-97 -354q-93 -158 -252 -252q-169 -100 -368 -100q-180 0 -347 94q-176 101 -270 271q-87 157 -87 350q0 291 225 503q112 106 258 156q116 39 229 39zM797 1245q-254 0 -421 -195q-136 -158 -136 -361
q0 -252 174 -416q90 -84 205 -125q87 -30 173 -30q155 0 289 81q132 78 203 209q69 126 69 273q0 239 -170 407q-89 87 -205 126q-91 31 -181 31zM796 -123q44 0 74 -31q31 -30 31 -73q0 -44 -31 -74q-30 -31 -73 -31q-44 0 -74 31q-31 31 -31 75q0 41 31 72q30 31 73 31z
" />
    <glyph glyph-name="uni1ECD" unicode="&#x1ecd;" horiz-adv-x="1040" vert-adv-y="2457" 
d="M520 870q201 0 334 -146q115 -126 115 -301q0 -204 -149 -336q-126 -112 -303 -112q-122 0 -228 62q-108 64 -166 175q-52 98 -52 218q0 186 140 319q128 121 309 121zM519 738q-146 0 -232 -110q-67 -86 -67 -201q0 -147 89 -236q84 -84 207 -84q150 0 238 109
q66 83 66 206q0 144 -90 232q-85 84 -211 84zM520 -123q44 0 74 -31q31 -30 31 -73q0 -44 -31 -74q-30 -31 -73 -31q-44 0 -74 31q-31 31 -31 75q0 42 31 72q31 31 73 31z" />
    <glyph glyph-name="uni1ECE" unicode="&#x1ece;" horiz-adv-x="1593" vert-adv-y="2457" 
d="M798 1388q189 0 349 -94q168 -97 264 -260q96 -164 96 -353t-97 -354q-93 -158 -252 -252q-169 -100 -368 -100q-180 0 -347 94q-176 101 -270 271q-87 157 -87 350q0 291 225 503q112 106 258 156q116 39 229 39zM797 1245q-254 0 -421 -195q-136 -158 -136 -361
q0 -252 174 -416q90 -84 205 -125q87 -30 173 -30q155 0 289 81q132 78 203 209q69 126 69 273q0 239 -170 407q-89 87 -205 126q-91 31 -181 31zM821 1541h-82v125q43 8 64 10q69 10 92 29q21 17 21 50q0 84 -109 84q-39 0 -54 -8q-44 -23 -58 -28l-26 65q102 39 181 39
t130 -37q64 -47 64 -122q0 -57 -42 -94q-41 -36 -118 -36q-24 0 -63 2v-79z" />
    <glyph glyph-name="uni1ECF" unicode="&#x1ecf;" horiz-adv-x="1040" vert-adv-y="2457" 
d="M520 870q201 0 334 -146q115 -126 115 -301q0 -204 -149 -336q-126 -112 -303 -112q-122 0 -228 62q-108 64 -166 175q-52 98 -52 218q0 186 140 319q128 121 309 121zM519 738q-146 0 -232 -110q-67 -86 -67 -201q0 -147 89 -236q84 -84 207 -84q150 0 238 109
q66 83 66 206q0 144 -90 232q-85 84 -211 84zM544 982h-82v125q43 7 64 10q69 10 92 28q21 18 21 50q0 84 -109 84q-39 0 -54 -8q-44 -22 -58 -27l-26 65q101 38 181 38q79 0 130 -37q64 -47 64 -121q0 -57 -42 -94q-41 -36 -118 -36q-24 0 -63 2v-79z" />
    <glyph glyph-name="uni1ED0" unicode="&#x1ed0;" horiz-adv-x="1593" vert-adv-y="2457" 
d="M944 1679l225 244l137 -92l-276 -225l53 -46l-108 -83l-180 155l-179 -155l-106 84l285 243zM793 1388q315 0 529 -234q185 -202 185 -473q0 -189 -97 -354q-93 -158 -252 -252q-169 -100 -362 -100q-186 0 -353 94q-175 101 -270 271q-87 157 -87 327q0 314 225 526
q111 105 256 155q117 40 226 40zM797 1245q-254 0 -421 -195q-136 -158 -136 -361q0 -252 174 -416q90 -84 205 -125q87 -30 173 -30q155 0 289 81q132 78 203 209q69 126 69 273q0 239 -170 407q-89 87 -205 126q-91 31 -181 31z" />
    <glyph glyph-name="uni1ED1" unicode="&#x1ed1;" horiz-adv-x="1043" vert-adv-y="2457" 
d="M683 1198l187 257l152 -69l-260 -262l49 -46l-105 -81l-179 169l-180 -169l-102 81l282 266zM518 870q204 0 337 -146q115 -126 115 -302q0 -203 -149 -335q-126 -112 -300 -112q-209 0 -343 156q-106 125 -106 284q0 202 140 334q128 121 306 121zM520 738
q-146 0 -232 -110q-67 -86 -67 -201q0 -147 89 -236q84 -84 207 -84q150 0 238 109q66 83 66 206q0 144 -90 232q-85 84 -211 84z" />
    <glyph glyph-name="uni1ED2" unicode="&#x1ed2;" horiz-adv-x="1593" vert-adv-y="2457" 
d="M566 1608l-275 223l137 92l223 -242l144 123l288 -244l-108 -83l-180 155l-179 -155l-106 84zM793 1388q315 0 529 -234q185 -202 185 -473q0 -189 -97 -354q-93 -158 -252 -252q-169 -100 -362 -100q-186 0 -353 94q-175 101 -270 271q-87 157 -87 327q0 314 225 526
q111 105 256 155q117 40 226 40zM797 1245q-254 0 -421 -195q-136 -158 -136 -361q0 -252 174 -416q90 -84 205 -125q87 -30 173 -30q155 0 289 81q132 78 203 209q69 126 69 273q0 239 -170 407q-89 87 -205 126q-91 31 -181 31z" />
    <glyph glyph-name="uni1ED3" unicode="&#x1ed3;" horiz-adv-x="1043" vert-adv-y="2457" 
d="M295 1125l-266 268l151 69l193 -264l154 146l285 -266l-105 -81l-179 169l-180 -169l-103 81zM519 870q204 0 337 -146q115 -126 115 -302q0 -203 -149 -335q-126 -112 -300 -112q-209 0 -343 156q-106 125 -106 284q0 202 140 334q128 121 306 121zM521 738
q-146 0 -232 -110q-67 -85 -67 -201q0 -147 89 -236q84 -84 207 -84q150 0 238 109q66 83 66 206q0 144 -90 232q-85 84 -211 84z" />
    <glyph glyph-name="uni1ED4" unicode="&#x1ed4;" horiz-adv-x="1593" vert-adv-y="2457" 
d="M990 1639v85q42 7 64 10q69 9 92 28q21 18 21 50q0 35 -21 55q-31 29 -88 29q-39 0 -54 -8q-44 -22 -58 -27l-26 65q102 38 181 38t130 -37q64 -47 64 -121q0 -57 -42 -94q-41 -36 -118 -36q-25 0 -63 2v-79h-34l46 -39l-109 -83l-179 155l-180 -155l-106 84l285 243z
M793 1388q315 0 529 -234q185 -202 185 -473q0 -189 -97 -354q-93 -158 -252 -252q-169 -100 -362 -100q-186 0 -353 94q-175 101 -270 271q-87 157 -87 327q0 314 225 526q111 105 256 155q117 40 226 40zM797 1245q-254 0 -421 -195q-136 -158 -136 -361q0 -252 174 -416
q90 -84 205 -125q87 -30 173 -30q155 0 289 81q132 78 203 209q69 126 69 273q0 239 -170 407q-89 87 -205 126q-91 31 -181 31z" />
    <glyph glyph-name="uni1ED5" unicode="&#x1ed5;" horiz-adv-x="1043" vert-adv-y="2457" 
d="M721 1161v84q43 7 64 10q69 9 92 28q21 18 21 50q0 84 -109 84q-39 0 -55 -8q-43 -22 -57 -27l-26 65q102 38 181 38t130 -37q64 -47 64 -121q0 -57 -42 -94q-41 -36 -118 -36q-26 0 -63 2v-79h-37l45 -42l-105 -81l-180 169l-179 -169l-103 81l282 266zM518 870
q204 0 337 -146q115 -126 115 -302q0 -203 -149 -335q-126 -112 -300 -112q-209 0 -343 156q-106 125 -106 284q0 202 140 334q128 121 306 121zM520 738q-146 0 -232 -110q-67 -86 -67 -201q0 -147 89 -236q84 -84 207 -84q150 0 238 109q66 83 66 206q0 144 -90 232
q-85 84 -211 84z" />
    </font>
</defs>
</svg>
